Астрид Линдгрен. Пеппи Длинныйчулок [2017, Литературно-музыкальная композиция, WEB-DLRip] Из цикла "Сказки с оркестром"

Ответить на тему
Статистика раздачи [Обновить пиров]
Размер:  1.2 GB   |    Зарегистрирован:  1 год   |    Скачан:  0 раз

Полного источника не было: Никогда

 
   
 
 
 
Автор Сообщение

torrentc.info

Создавать темы 25-Ноя-2017 22:12

[Цитировать]

Астрид Линдгрен. Пеппи Длинныйчулок Из цикла "Сказки с оркестром".
Год выхода: 2017.
Жанр: Литературно-музыкальная композиция.
Продолжительность: 01:25:57.
Исполнитель: Юлия Пересильд (художественное слово).
Описание:
Литературно-музыкальная композиция по известной сказке Астрид Линдгрен.
Дополнительная информация:
Страна: Россия .
По сказке Астрид Лингрен.
Авторы композиции: Тихон Хренников-младший и Ксения Суетина.
Прямая интернет-трансляция из виртуального концертного зала "Магнитогорск".
Академический симфонический оркестр Московской филармонии.
Художественный руководитель и главный дирижер:
народный артист СССР Юрий Симонов.
Дирижер: народный артист России Владимир Понькин.
В композиции звучит музыка Тихона Хренников-младшего (музыка к сказке «Пеппи Длинныйчулок»), Юлиуса Фучика (1872-1916).
Художники: Анна и Александр Ремезовы.
Концерт состоялся 15 октября 2017 года.
Абонемент №185А: Сказки с оркестром.
Воскресные дневные симфонические концерты для детей.


Рип lesik689.

Качество видео:...WEB-DLRip
Формат файла:.................AVI
Видео:..720x400 (1.80:1), 25 fps, XviD MPEG-4 ~1804 kbps avg, 0.25 bit/pixel
Аудио:..48 kHz, MPEG Layer 3, 2 ch, ~192.00 kbps avg

Отчет Media Info

General
Complete name : Peppi.Dlinnyjchulok.2017.XviD.WEB-DLRip.fenixclub.avi
Format : AVI
Format/Info : Audio Video Interleave
File size : 1.20 GiB
Duration : 1h 25mn
Overall bit rate : 2 006 Kbps
Writing application : VirtualDubMod 1.5.10.2 (build 2542/release)
Writing library : VirtualDubMod build 2542/release
Video
ID : 0
Format : MPEG-4 Visual
Format profile : Advanced Simple@L5
Format settings, BVOP : 2
Format settings, QPel : No
Format settings, GMC : No warppoints
Format settings, Matrix : Default (MPEG)
Codec ID : XVID
Codec ID/Hint : XviD
Duration : 1h 25mn
Bit rate : 1 804 Kbps
Width : 720 pixels
Height : 400 pixels
Display aspect ratio : 16:9
Original display aspect rat : 16:9
Frame rate : 25.000 fps
Color space : YUV
Chroma subsampling : 4:2:0
Bit depth : 8 bits
Scan type : Progressive
Compression mode : Lossy
Bits/(Pixel*Frame) : 0.251
Stream size : 1.08 GiB (90%)
Writing library : XviD 73
Audio
ID : 1
Format : MPEG Audio
Format version : Version 1
Format profile : Layer 3
Mode : Joint stereo
Codec ID : 55
Codec ID/Hint : MP3
Duration : 1h 25mn
Bit rate mode : Constant
Bit rate : 192 Kbps
Channel(s) : 2 channels
Sampling rate : 48.0 KHz
Compression mode : Lossy
Stream size : 118 MiB (10%)
Alignment : Split accross interleaves
Interleave, duration : 40 ms (1.00 video frame)
Interleave, preload duratio : 500 ms.

Скриншоты




[torrentc.info]_t_5481273.torrent
Торрент: Зарегистрирован ·  [ 2017-11-25 22:12 ] ·  e9afa1710aeea6d23894f0d2b8fb6db0a6e960f9

13 KB

Статус: проверено
Скачан: 0 раз
Размер: 1.2 GB
Оценка: 
(Голосов: 0)
Сказали спасибо: 0  Спасибо
Похожие темы
[Профиль]    [ЛС]
Показать сообщения:    
Ответить на тему

Текущее время: Сегодня 22:21

Часовой пояс: GMT + 7



Вы не можете начинать темы
Вы не можете отвечать на сообщения
Вы не можете редактировать свои сообщения
Вы не можете удалять свои сообщения
Вы не можете голосовать в опросах
Вы не можете прикреплять файлы к сообщениям
Вы можете скачивать файлы