(Ethereal) Stellamara - Star Of The Sea - 1997, APE (image+.cue), lossless

Ответить на тему
Статистика раздачи [Обновить пиров]
Размер:  267 MB   |    Зарегистрирован:  7 месяцев 5 дней   |    Скачан:  0 раз

Полного источника не было: Никогда

 
   
 
 
 
Автор Сообщение

torrentc.info

Создавать темы 16-Ноя-2017 12:54

[Цитировать]

Stellamara - Star Of The Sea
Страна: USA
Жанр: ethereal
Год выхода: 1997
Формат файла: APE (image + .cue)
Битрейт аудио: lossless
Продолжительность: 49:05
Трэклист:
1 Maris 5:16
2 Kereshme 8:08
3 Zephyrus 4:34
4 Taqsim 1:45
5 Del Mar Rojo 5:07
6 Immrama 6:54
7 Leda 2:16
8 Karuna 9:09
9 Oj Jabuko 5:51
Рецензии на английском - http://cdbaby.com/cd/stellamara1

Отчёт EAC

Exact Audio Copy V0.99 prebeta 4 from 23. January 2008
Отчёт EAC об извлечении, выполненном 4. мая 2008, 13:43
Stellamara / Star Of The Sea
Дисковод: DVD-ROM Adapter: 1 ID: 1
Режим чтения : ДостоверностьИспользование точного потока : ДаОтключение кэша аудио : ДаИспользование указателей C2 : Нет
Коррекция смещения при чтении : 102Способность читать области Lead-in и Lead-out : НетЗаполнение пропущенных сэмплов тишиной : ДаУдаление блоков с тишиной в начале и конце : НетПри вычислениях CRC использовались нулевые сэмплы : НетИнтерфейс : Установленный внешний ASPI-интерфейс
Выходной формат : Внутренние WAV-операцииФормат файла сэмплов : 44.100 Гц; 16 бит; стерео
TOC извлечённого CD
Трек | Старт | Длительность | Начальный сектор | Конечный сектор --------------------------------------------------------------------- 1 | 0:00.00 | 5:16.27 | 0 | 23726 2 | 5:16.27 | 8:08.58 | 23727 | 60384 3 | 13:25.10 | 4:34.57 | 60385 | 80991 4 | 17:59.67 | 1:45.68 | 80992 | 88934 5 | 19:45.60 | 5:07.45 | 88935 | 112004 6 | 24:53.30 | 6:54.37 | 112005 | 143091 7 | 31:47.67 | 2:16.70 | 143092 | 153361 8 | 34:04.62 | 9:09.38 | 153362 | 194574 9 | 43:14.25 | 5:51.29 | 194575 | 220928
Характеристики диапазона извлечения и сообщения об ошибках
Выбранный диапазон
Имя файла L:\00\Stellamara - Star Of The Sea\Stellamara - Star Of The Sea.wav
Пиковый уровень 97.7 % Качество диапазона 99.9 % CRC копии 00C5AEA1 Копирование... OK
Ошибок не произошло
AccurateRip: сводка
Трек 1 нет в базе данныхТрек 2 нет в базе данныхТрек 3 нет в базе данныхТрек 4 нет в базе данныхТрек 5 нет в базе данныхТрек 6 нет в базе данныхТрек 7 нет в базе данныхТрек 8 нет в базе данныхТрек 9 нет в базе данных
Ни одного трека нет в базе AccurateRip
Конец отчёта


[torrentc.info]_t_839559.torrent
Торрент: Зарегистрирован ·  [ 2017-11-16 12:54 ] ·  39b9abf564dabbbbcd667390adec73ff50fd8daf

11 KB

Статус: проверено
Скачан: 0 раз
Размер: 267 MB
Оценка: 
(Голосов: 0)
Сказали спасибо: 0  Спасибо
Похожие темы
[Профиль]    [ЛС]
Показать сообщения:    
Ответить на тему

Текущее время: Сегодня 15:26

Часовой пояс: GMT + 7



Вы не можете начинать темы
Вы не можете отвечать на сообщения
Вы не можете редактировать свои сообщения
Вы не можете удалять свои сообщения
Вы не можете голосовать в опросах
Вы не можете прикреплять файлы к сообщениям
Вы можете скачивать файлы