(Neo-Classic / Neo-Folk) Caprice - Зеркало - 2006, APE (image+.cue), lossless

Ответить на тему
Статистика раздачи [Обновить пиров]
Размер:  305 MB   |    Зарегистрирован:  9 месяцев 1 день   |    Скачан:  0 раз

Полного источника не было: Никогда

Личеров:  2  [  0 KB/s  ]   Подробная статистика скачивающих
 
   
 
 
 
Автор Сообщение

torrentc.info

Создавать темы 15-Ноя-2017 20:28

[Цитировать]

Caprice - Зеркало
Страна: Россия
Жанр: Neo-Classic / Neo-Folk
Год выхода: 2006
Формат файла: APE (image + .cue)
Битрейт аудио: lossless
Продолжительность: 53:56
Трэклист:
01 Вступление I
02 Над городом дым
03 Зеркало
04 Интерлюдия
05 Лес
06 Я хочу ждать еще
07 Пауза
08 Второй ад Вертера
09 Вальс
10 Последнее утро
11 Денеб
12 Вступление II
13 Вальс (VERSION by DVAR)

Отчёт EAC

Exact Audio Copy V0.99 prebeta 3 from 28. July 2007
Отчёт EAC об извлечении, выполненном 17. января 2008, 20:56
Caprice / Зеркало (1996 ремаст.)
Дисковод: PIONEER DVD-RW DVR-111D Adapter: 0 ID: 1
Режим чтения : ДостоверностьИспользование точного потока : ДаОтключение кэша аудио : ДаИспользование указателей C2 : Нет
Коррекция смещения при чтении : 48Способность читать области Lead-in и Lead-out : НетЗаполнение пропущенных сэмплов тишиной : ДаУдаление блоков с тишиной в начале и конце : НетПри вычислениях CRC использовались нулевые сэмплы : НетИнтерфейс : Установленный внешний ASPI-интерфейс
Выходной формат : Внутренние WAV-операцииФормат файла сэмплов : 44.100 Гц; 16 бит; стерео
TOC извлечённого CD
Трек | Старт | Длительность | Начальный сектор | Конечный сектор --------------------------------------------------------------------- 1 | 0:00.00 | 4:31.62 | 0 | 20386 2 | 4:31.62 | 3:10.07 | 20387 | 34643 3 | 7:41.69 | 8:32.62 | 34644 | 73105 4 | 16:14.56 | 3:02.16 | 73106 | 86771 5 | 19:16.72 | 3:18.56 | 86772 | 101677 6 | 22:35.53 | 4:49.38 | 101678 | 123390 7 | 27:25.16 | 2:17.26 | 123391 | 133691 8 | 29:42.42 | 9:19.58 | 133692 | 175674 9 | 39:02.25 | 2:23.11 | 175675 | 186410 10 | 41:25.36 | 3:19.57 | 186411 | 201392 11 | 44:45.18 | 2:54.43 | 201393 | 214485 12 | 47:39.61 | 3:09.65 | 214486 | 228725 13 | 50:49.51 | 3:06.17 | 228726 | 242692
Характеристики диапазона извлечения и сообщения об ошибках
Выбранный диапазон
Имя файла D:\Audio_Temp\Caprice - Зеркало (1996 ремаст.)\Caprice - Зеркало (1996 ремаст.).wav
Пиковый уровень 98.8 % Качество диапазона 100.0 % CRC копии 32748077 Копирование... OK
Ошибок не произошло
AccurateRip: сводка
Трек 1 нет в базе данныхТрек 2 нет в базе данныхТрек 3 нет в базе данныхТрек 4 нет в базе данныхТрек 5 нет в базе данныхТрек 6 нет в базе данныхТрек 7 нет в базе данныхТрек 8 нет в базе данныхТрек 9 нет в базе данныхТрек 10 нет в базе данныхТрек 11 нет в базе данныхТрек 12 нет в базе данныхТрек 13 нет в базе данных
Ни одного трека нет в базе AccurateRip
Конец отчёта
Рецензия - http://rezultat.atknet.ru/recenses/?239


[torrentc.info]_t_709950.torrent
Торрент: Зарегистрирован ·  [ 2017-11-15 20:24 ] ·  d14f816b47959046301fac758c9a6776bca69e6c

13 KB

Статус: проверено
Скачан: 0 раз
Размер: 305 MB
Оценка: 
(Голосов: 0)
Сказали спасибо: 0  Спасибо
Похожие темы
[Профиль]    [ЛС]
Показать сообщения:    
Ответить на тему

Текущее время: Сегодня 10:19

Часовой пояс: GMT + 7



Вы не можете начинать темы
Вы не можете отвечать на сообщения
Вы не можете редактировать свои сообщения
Вы не можете удалять свои сообщения
Вы не можете голосовать в опросах
Вы не можете прикреплять файлы к сообщениям
Вы можете скачивать файлы