(Ethereal, Darkwave) Lycia - Empty Space - 2003, FLAC (tracks), lossless

Ответить на тему
Статистика раздачи [Обновить пиров]
Размер:  255 MB   |    Зарегистрирован:  9 месяцев   |    Скачан:  0 раз

Полного источника не было: Никогда

Личеров:  3  [  0 KB/s  ]   Подробная статистика скачивающих
 
   
 
 
 
Автор Сообщение

torrentc.info

Создавать темы 15-Ноя-2017 20:28

[Цитировать]

Lycia - Empty Space
Label: Silber Records
Catalog#: silber 032
Format: CD, Album
Country: US
Released: 2003
Genre: Electronic, Rock
Style: Ethereal, Darkwave
Credits: Bass - David Galas
Drum Programming - John Fair
Guitar, Photography - Mike VanPortfleet
Vocals - Mike VanPortfleet , Tara Vanflower
Notes: Recorded and mixed November & December 1999 at Lycium Music, Ohio. Additional mixing July 2001 at Lycium Music, Arizona.
Продолжительность: 42:25
Tracklisting:
1 Not Here, Not Anywhere (4:32)
2 You Can Never Go Home Again (4:52)
3 Persephone (4:26)
4 Fur & Thistle (5:04)
5 Hope Is Here (5:04)
6 Violent Violet (4:32)
7 Bloody Basin (4:49)
8 The Long Drive (5:05)
9 This Is The End (3:58)

EAC Log

EAC extraction logfile from 28. February 2008, 23:28 for CDLycia / Empty Space
Used drive : LITE-ON CD-RW SOHR-5239V Adapter: 1 ID: 1Read mode : Secure with NO C2, accurate stream, disable cacheCombined read/write offset correction : 6Overread into Lead-In and Lead-Out : No
Used output format : Internal WAV Routines 44.100 Hz; 16 Bit; Stereo
Other options : Fill up missing offset samples with silence : Yes Delete leading and trailing silent blocks : No Native Win32 interface for Win NT & 2000
Track 1 Filename E:\AUDIO\EL3KTR0NIK\CALM\Lycia\Empty Space\Not Here, Not Anywhere.wav
Peak level 94.4 % Track quality 99.9 % Test CRC 38179648 Copy CRC 38179648 Copy OK
Track 2 Filename E:\AUDIO\EL3KTR0NIK\CALM\Lycia\Empty Space\You Can Never Go Home Again.wav
Peak level 94.4 % Track quality 100.0 % Test CRC 899FEA86 Copy CRC 899FEA86 Copy OK
Track 3 Filename E:\AUDIO\EL3KTR0NIK\CALM\Lycia\Empty Space\Persephone.wav
Peak level 94.4 % Track quality 100.0 % Test CRC A644E90E Copy CRC A644E90E Copy OK
Track 4 Filename E:\AUDIO\EL3KTR0NIK\CALM\Lycia\Empty Space\Fur & Thistle.wav
Peak level 94.4 % Track quality 100.0 % Test CRC 09D1278C Copy CRC 09D1278C Copy OK
Track 5 Filename E:\AUDIO\EL3KTR0NIK\CALM\Lycia\Empty Space\Hope Is Here.wav
Peak level 94.4 % Track quality 100.0 % Test CRC C7A94BEA Copy CRC C7A94BEA Copy OK
Track 6 Filename E:\AUDIO\EL3KTR0NIK\CALM\Lycia\Empty Space\Violent Violet.wav
Peak level 94.4 % Track quality 99.9 % Test CRC C795B8E9 Copy CRC C795B8E9 Copy OK
Track 7 Filename E:\AUDIO\EL3KTR0NIK\CALM\Lycia\Empty Space\Bloody Basin.wav
Peak level 94.4 % Track quality 100.0 % Test CRC F2AB5456 Copy CRC F2AB5456 Copy OK
Track 8 Filename E:\AUDIO\EL3KTR0NIK\CALM\Lycia\Empty Space\The Long Drive.wav
Peak level 94.4 % Track quality 100.0 % Test CRC 53493633 Copy CRC 53493633 Copy OK
Track 9 Filename E:\AUDIO\EL3KTR0NIK\CALM\Lycia\Empty Space\This Is The End.wav
Peak level 94.4 % Track quality 100.0 % Test CRC 6649A10D Copy CRC 6649A10D Copy OK
No errors occured
End of status report


[torrentc.info]_t_1120772.torrent
Торрент: Зарегистрирован ·  [ 2017-11-15 20:24 ] ·  33bdc35c1c731f23c62094f1500a5991b9334225

21 KB

Статус: проверено
Скачан: 0 раз
Размер: 255 MB
Оценка: 
(Голосов: 0)
Сказали спасибо: 0  Спасибо
Похожие темы
[Профиль]    [ЛС]
Показать сообщения:    
Ответить на тему

Текущее время: Сегодня 00:24

Часовой пояс: GMT + 7



Вы не можете начинать темы
Вы не можете отвечать на сообщения
Вы не можете редактировать свои сообщения
Вы не можете удалять свои сообщения
Вы не можете голосовать в опросах
Вы не можете прикреплять файлы к сообщениям
Вы можете скачивать файлы