(Ethereal, Darkwave) Lycia - The Burning Circle And Then Dust (2CD) - 1995, FLAC (tracks), lossless

Ответить на тему
Статистика раздачи [Обновить пиров]
Размер:  734 MB   |    Зарегистрирован:  9 месяцев   |    Скачан:  0 раз

Полного источника не было: Никогда

Личеров:  1  [  0 KB/s  ]   Подробная статистика скачивающих
 
   
 
 
 
Автор Сообщение

torrentc.info

Создавать темы 15-Ноя-2017 20:28

[Цитировать]

Lycia - The Burning Circle And Then Dust
Label: Projekt
Catalog#: PROJEKT 55
Format: 2 x CD, Album
Country: US
Released: 1995
Genre: Electronic, Rock
Style: Ethereal, Darkwave
Credits: Bass, Electronics, Programmed By, Engineer, Edited By - David Galas
Guitar, Vocals, Electronics, Programmed By, Photography - Mike VanPortfleet
Mastered By - Kevin Gray , Ryan Lum
Vocals - Tara Vanflower
Notes: Recorded April-December 1994 in the Boiler Room, Tempe, Arizona. Mastered at L.R.S., Burbank, California
Rating: 4.3/5 (13 votes) [ http://www.discogs.com/release/218029 ]
Tracklisting:
1-1 A Presence In The Woods (4:09)
1-2 Wandering Soul (4:47)
1-3 The Dust Settles (Part 1) (1:52)
1-4 Sleepless (3:27)
1-5 The Dust Settles (Part 2) (1:29)
1-6 The Return Of Nothing (4:43)
1-7 The Dust Settles (Part 3) (2:54)
1-8 Pray (5:20)
1-9 The Better Things To Come (4:32)
1-10 On The Horizon (3:10)
1-11 Where Has All The Time Gone (3:13)
1-12 Silence And Distance (3:31)
1-13 Anywhere But Home (3:57)
1-14 In The Fire And Flames (2:12)
1-15 Slip Away (6:17)
1-16 The Last Day (4:25)

2-1 August (Part 1) (4:39)
2-2 Nine Hours Later (4:46)
2-3 Nimble (3:43)
2-4 August (Part 2) (6:13)
2-5 The Facade Fades (4:10)
2-6 Resigned (6:36)
2-7 Surrender (4:28)
2-8 These Memories Pass (9:18)
2-9 The Burning Circle (6:24)
2-10 The New Day (5:54)

Лог EAC - CD1

EAC extraction logfile from 9. September 2007, 11:30 for CDLycia / The Burning Circle And Then Dust
Used drive : LITE-ON LTR-52327S Adapter: 0 ID: 0Read mode : Secure with NO C2, accurate stream, disable cacheRead offset correction : 6Overread into Lead-In and Lead-Out : No
Used output format : C:\Program Files\FLAC\flac.exe (User Defined Encoder) 128 kBit/s Additional command line options : -V -8 -T "artist=%a" -T "title=%t" -T "album=%g" -T "date=%y" -T "tracknumber=%n" -T "genre=%m" %s
Other options : Fill up missing offset samples with silence : Yes Delete leading and trailing silent blocks : No Installed external ASPI interface
Track 1 Filename C:\Torrents\Oink Music\Lycia - The Burning Circle And Then Dust\Disc 1\01 - A Presence In the Woods.wav
Pre-gap length 0:00:02.00
Peak level 99.9 % Track quality 100.0 % Test CRC 3610DF86 Copy CRC 3610DF86 Copy OK
Track 2 Filename C:\Torrents\Oink Music\Lycia - The Burning Circle And Then Dust\Disc 1\02 - Wandering Soul.wav
Peak level 100.0 % Track quality 100.0 % Test CRC 2F6432F9 Copy CRC 2F6432F9 Copy OK
Track 3 Filename C:\Torrents\Oink Music\Lycia - The Burning Circle And Then Dust\Disc 1\03 - The Dust Settles (Part 1).wav
Peak level 99.9 % Track quality 100.0 % Test CRC A11ED470 Copy CRC A11ED470 Copy OK
Track 4 Filename C:\Torrents\Oink Music\Lycia - The Burning Circle And Then Dust\Disc 1\04 - Sleepless.wav
Peak level 100.0 % Track quality 100.0 % Test CRC FD6FB8ED Copy CRC FD6FB8ED Copy OK
Track 5 Filename C:\Torrents\Oink Music\Lycia - The Burning Circle And Then Dust\Disc 1\05 - The Dust Settles (Part 2).wav
Peak level 91.7 % Track quality 100.0 % Test CRC 2CBFCBDB Copy CRC 2CBFCBDB Copy OK
Track 6 Filename C:\Torrents\Oink Music\Lycia - The Burning Circle And Then Dust\Disc 1\06 - The Return of Nothing.wav
Peak level 87.2 % Track quality 100.0 % Test CRC F2324F35 Copy CRC F2324F35 Copy OK
Track 7 Filename C:\Torrents\Oink Music\Lycia - The Burning Circle And Then Dust\Disc 1\07 - The Dust Settles (Part 3).wav
Peak level 90.4 % Track quality 100.0 % Test CRC 6F50399C Copy CRC 6F50399C Copy OK
Track 8 Filename C:\Torrents\Oink Music\Lycia - The Burning Circle And Then Dust\Disc 1\08 - Pray.wav
Peak level 100.0 % Track quality 100.0 % Test CRC 4988E2E5 Copy CRC 4988E2E5 Copy OK
Track 9 Filename C:\Torrents\Oink Music\Lycia - The Burning Circle And Then Dust\Disc 1\09 - The Better Things To Come.wav
Peak level 90.5 % Track quality 100.0 % Test CRC 667EAA48 Copy CRC 667EAA48 Copy OK
Track 10 Filename C:\Torrents\Oink Music\Lycia - The Burning Circle And Then Dust\Disc 1\10 - On the Horizon.wav
Peak level 100.0 % Track quality 99.9 % Test CRC FC1B077F Copy CRC FC1B077F Copy OK
Track 11 Filename C:\Torrents\Oink Music\Lycia - The Burning Circle And Then Dust\Disc 1\11 - Where Has All the Time Gone.wav
Pre-gap length 0:00:00.63
Peak level 87.5 % Track quality 100.0 % Test CRC 26642D39 Copy CRC 26642D39 Copy OK
Track 12 Filename C:\Torrents\Oink Music\Lycia - The Burning Circle And Then Dust\Disc 1\12 - Silence and Distance.wav
Peak level 94.6 % Track quality 100.0 % Test CRC 440222AF Copy CRC 440222AF Copy OK
Track 13 Filename C:\Torrents\Oink Music\Lycia - The Burning Circle And Then Dust\Disc 1\13 - Anywhere But Home.wav
Peak level 74.2 % Track quality 100.0 % Test CRC 374D4949 Copy CRC 374D4949 Copy OK
Track 14 Filename C:\Torrents\Oink Music\Lycia - The Burning Circle And Then Dust\Disc 1\14 - In the Fire And Flames.wav
Peak level 88.8 % Track quality 100.0 % Test CRC BDF21649 Copy CRC BDF21649 Copy OK
Track 15 Filename C:\Torrents\Oink Music\Lycia - The Burning Circle And Then Dust\Disc 1\15 - Slip Away.wav
Peak level 99.9 % Track quality 100.0 % Test CRC 2BB081C1 Copy CRC 2BB081C1 Copy OK
Track 16 Filename C:\Torrents\Oink Music\Lycia - The Burning Circle And Then Dust\Disc 1\16 - The Last Day.wav
Peak level 100.0 % Track quality 99.9 % Test CRC CA398648 Copy CRC CA398648 Copy OK
No errors occured
End of status report

Лог EAC - CD2

EAC extraction logfile from 9. September 2007, 13:32 for CDLycia / The Burning Circle And Then Dust
Used drive : LITE-ON LTR-52327S Adapter: 0 ID: 0Read mode : Secure with NO C2, accurate stream, disable cacheRead offset correction : 6Overread into Lead-In and Lead-Out : No
Used output format : C:\Program Files\FLAC\flac.exe (User Defined Encoder) 128 kBit/s Additional command line options : -V -8 -T "artist=%a" -T "title=%t" -T "album=%g" -T "date=%y" -T "tracknumber=%n" -T "genre=%m" %s
Other options : Fill up missing offset samples with silence : Yes Delete leading and trailing silent blocks : No Installed external ASPI interface
Track 1 Filename C:\Torrents\Oink Music\Lycia - The Burning Circle And Then Dust\Disc 2\01 - August (Part 1).wav
Pre-gap length 0:00:02.00
Peak level 92.2 % Track quality 100.0 % Test CRC A5C576A3 Copy CRC A5C576A3 Copy OK
Track 2 Filename C:\Torrents\Oink Music\Lycia - The Burning Circle And Then Dust\Disc 2\02 - Nine Hours Later.wav
Peak level 93.4 % Track quality 100.0 % Test CRC D4F6FF16 Copy CRC D4F6FF16 Copy OK
Track 3 Filename C:\Torrents\Oink Music\Lycia - The Burning Circle And Then Dust\Disc 2\03 - Nimble.wav
Peak level 100.0 % Track quality 100.0 % Test CRC 02F58382 Copy CRC 02F58382 Copy OK
Track 4 Filename C:\Torrents\Oink Music\Lycia - The Burning Circle And Then Dust\Disc 2\04 - August (Part 2).wav
Peak level 99.9 % Track quality 100.0 % Test CRC 81FEA068 Copy CRC 81FEA068 Copy OK
Track 5 Filename C:\Torrents\Oink Music\Lycia - The Burning Circle And Then Dust\Disc 2\05 - The Facade Fades.wav
Peak level 87.6 % Track quality 100.0 % Test CRC B95221C8 Copy CRC B95221C8 Copy OK
Track 6 Filename C:\Torrents\Oink Music\Lycia - The Burning Circle And Then Dust\Disc 2\06 - Resigned.wav
Pre-gap length 0:00:00.08
Peak level 100.0 % Track quality 100.0 % Test CRC BBE9157F Copy CRC BBE9157F Copy OK
Track 7 Filename C:\Torrents\Oink Music\Lycia - The Burning Circle And Then Dust\Disc 2\07 - Surrender.wav
Peak level 67.3 % Track quality 100.0 % Test CRC 1AFFA4C3 Copy CRC 1AFFA4C3 Copy OK
Track 8 Filename C:\Torrents\Oink Music\Lycia - The Burning Circle And Then Dust\Disc 2\08 - These Memories Pass.wav
Pre-gap length 0:00:00.08
Peak level 87.6 % Track quality 100.0 % Test CRC 382A65C8 Copy CRC 382A65C8 Copy OK
Track 9 Filename C:\Torrents\Oink Music\Lycia - The Burning Circle And Then Dust\Disc 2\09 - The Burning Circle.wav
Peak level 91.3 % Track quality 100.0 % Test CRC B829C2CF Copy CRC B829C2CF Copy OK
Track 10 Filename C:\Torrents\Oink Music\Lycia - The Burning Circle And Then Dust\Disc 2\10 - The New Day.wav
Peak level 100.0 % Track quality 100.0 % Test CRC 044D83BD Copy CRC 044D83BD Copy OK
No errors occured
End of status report
«Это наиболее личная запись из всех, что я когда-либо делал. Тема – содержание и движение вперед, но по-прежнему помня темноту и хаос.» - Майк Ванпортфлит
Пятая запись Lycia представляет собой набор из двух дисков, который продолжает темное воображение гитариста/вокалиста Ванпортфлита, присоединившегося Дэвида Галаса (электроника и бас) и вокалистки Тары ВанФлауэр в двух песнях. Стремительная готическая музыка гитар и великолепная амбиентная электроника с редким гипнотическим и неистовым ритмом. Невероятно красиво.
«Возвращаясь в более формальную структуру песен, Burning Circle вновь приходит к подлинному сочинению песен и делает одинаковое ударение как на гитаре, так и на электронике. Однако, как никогда стремительная и мощная музыка вызывает в воображении огромные панорамы музыкальных пейзажей, захваченных в хрупкую сеть песни и структуры. Такие песни как "Pray" несомненно близки танцевальной музыке, тогда как другие показывают движение Lycia к плодородной земле дарк-поп. Поразительная в масштабах и красоте, торжествующая в воображении, чувствительное наслаждение. Lycia прибыла.»
- Pandemonium


[torrentc.info]_t_579269.torrent
Торрент: Зарегистрирован ·  [ 2017-11-15 20:24 ] ·  404ce41320dfe08ae79ba9c0eef4b5ad963d0f40

17 KB

Статус: проверено
Скачан: 0 раз
Размер: 734 MB
Оценка: 
(Голосов: 0)
Сказали спасибо: 0  Спасибо
Похожие темы
[Профиль]    [ЛС]
Показать сообщения:    
Ответить на тему

Текущее время: Сегодня 00:25

Часовой пояс: GMT + 7



Вы не можете начинать темы
Вы не можете отвечать на сообщения
Вы не можете редактировать свои сообщения
Вы не можете удалять свои сообщения
Вы не можете голосовать в опросах
Вы не можете прикреплять файлы к сообщениям
Вы можете скачивать файлы