(Hard Rock, Heavy Metal) [CD] VA - Two Minutes To Midnight: A Millennium Tribute To Iron Maiden - 2013, FLAC (image+.cue), lossless

Ответить на тему
Статистика раздачи [Обновить пиров]
Размер:  1.29 GB   |    Зарегистрирован:  6 месяцев 7 дней   |    Скачан:  0 раз

Полного источника не было: Никогда

 
   
 
 
 
Автор Сообщение

torrentc.info

Создавать темы 14-Ноя-2017 19:49

[Цитировать]

Two Minutes To Midnight: A Millennium Tribute To Iron Maiden
Жанр: Hard Rock, Heavy Metal
Носитель: CD
Страна-производитель диска (релиза): France
Год издания: 2013
Издатель (лейбл): Versailles Records, MVD
Номер по каталогу: 689240200632
Аудиокодек: FLAC (*.flac)
Тип рипа: image+.cue
Битрейт аудио: lossless
Продолжительность: 2:32:40
Источник (релизер): Boris1
Наличие сканов в содержимом раздачи: да

CD 1

01. Regan Kendrick - Number Of The Beast Intro (0:26)
02. Chris Neufeld of Downshifter/ Richard Kendrick - The Number Of The Beast (4:33)
03. Ronny Munroe - Still Life (4:35)
04. Martian Honey - Wasted Years (3:59)
05. Electric Sister - Killers (5:43)
06. Tattoo Frank/ Leaving Eden - Wrathchild (2:54)
07. MYSTIC-FORCE - Revelation (6:10)
08. Threat Level - Die With Your Boots On (5:30)
09. Hachiman - The Evil That Men Do (4:31)
10. Fierce Atmospheres - Children Of The Damned (4:43)
11. bUGbRAIN - Rime Of The Ancient Mariner (6:29)
12. American Hellbilly - 2 Minutes To Midnight (6:02)
13. Soupbone - Hallowed Be Thy Name (4:36)
14. D3VILMAYCRY - Rainmaker (3:47)
15. Sonem - Only The Good Die Young (4:31)
16. Paul Di'Anno - Running Free (2:57)
17. Dark The Sky - Iron Maiden (3:40)

Лог создания рипа

Exact Audio Copy V1.0 beta 3 from 29. August 2011
EAC extraction logfile from 9. November 2017, 1:00
Various Artists / Two Minutes To Midnight: A Millennium Tribute To Iron Maiden CD1
Used drive : PIONEER BD-RW BDR-TD03 Adapter: 0 ID: 1
Read mode : SecureUtilize accurate stream : YesDefeat audio cache : YesMake use of C2 pointers : No
Read offset correction : 667Overread into Lead-In and Lead-Out : NoFill up missing offset samples with silence : YesDelete leading and trailing silent blocks : NoNull samples used in CRC calculations : YesUsed interface : Native Win32 interface for Win NT & 2000
Used output format : User Defined EncoderSelected bitrate : 768 kBit/sQuality : HighAdd ID3 tag : NoCommand line compressor : C:\Program Files (x86)\Exact Audio Copy\FLAC\FLAC.EXEAdditional command line options : -6 -V -T "ARTIST=%artist%" -T "TITLE=%title%" -T "ALBUM=%albumtitle%" -T "DATE=%year%" -T "TRACKNUMBER=%tracknr%" -T "GENRE=%genre%" -T "COMMENT=%comment%" -T "BAND=%albuminterpret%" -T "ALBUMARTIST=%albuminterpret%" -T "COMPOSER=%composer%" %haslyrics%--tag-from-file=LYRICS="%lyricsfile%"%haslyrics% -T "DISCNUMBER=%cdnumber%" -T "TOTALDISCS=%totalcds%" -T "TOTALTRACKS=%numtracks%" %hascover%--picture="%coverfile%"%hascover% %source% -o %dest%
TOC of the extracted CD
Track | Start | Length | Start sector | End sector --------------------------------------------------------- 1 | 0:00.00 | 0:26.15 | 0 | 1964 2 | 0:26.15 | 4:33.51 | 1965 | 22490 3 | 4:59.66 | 4:35.66 | 22491 | 43181 4 | 9:35.57 | 3:59.09 | 43182 | 61115 5 | 13:34.66 | 5:43.64 | 61116 | 86904 6 | 19:18.55 | 2:54.46 | 86905 | 100000 7 | 22:13.26 | 6:10.46 | 100001 | 127796 8 | 28:23.72 | 5:30.46 | 127797 | 152592 9 | 33:54.43 | 4:31.21 | 152593 | 172938 10 | 38:25.64 | 4:43.00 | 172939 | 194163 11 | 43:08.64 | 6:29.54 | 194164 | 223392 12 | 49:38.43 | 6:02.65 | 223393 | 250607 13 | 55:41.33 | 4:36.21 | 250608 | 271328 14 | 60:17.54 | 3:47.28 | 271329 | 288381 15 | 64:05.07 | 4:31.00 | 288382 | 308706 16 | 68:36.07 | 2:57.18 | 308707 | 321999 17 | 71:33.25 | 3:40.57 | 322000 | 338556
Range status and errors
Selected range
Filename C:\Users\Deris\Desktop\kpnemo.eu\IrMaTrib\CD1\Various Artists - Two Minutes To Midnight- A Millennium Tribute To Iron Maiden CD1.wav
Peak level 98.8 % Extraction speed 5.1 X Range quality 100.0 % Test CRC 15AB0599 Copy CRC 15AB0599 Copy OK
No errors occurred
AccurateRip summary
Track 1 not present in databaseTrack 2 not present in databaseTrack 3 not present in databaseTrack 4 not present in databaseTrack 5 not present in databaseTrack 6 not present in databaseTrack 7 not present in databaseTrack 8 not present in databaseTrack 9 not present in databaseTrack 10 not present in databaseTrack 11 not present in databaseTrack 12 not present in databaseTrack 13 not present in databaseTrack 14 not present in databaseTrack 15 not present in databaseTrack 16 not present in databaseTrack 17 not present in database
None of the tracks are present in the AccurateRip database
End of status report
---- CUETools DB Plugin V2.1.3
[CTDB TOCID: Za4mwMOTpW9LihuqPRc2i2F4aoE-] disk not present in database, Submit result: Za4mwMOTpW9LihuqPRc2i2F4aoE- has been uploaded
==== Log checksum 6CF44F2427475E56B769A0D343DB20DCFB1B62EAF64A3BE4CD262709835306B4 ====

Содержание индексной карты (.CUE)

REM GENRE "Heavy Metal"REM DATE 2013REM DISCID E511A211REM COMMENT "ExactAudioCopy v1.0b3"PERFORMER "Various Artists"TITLE "Two Minutes To Midnight: A Millennium Tribute To Iron Maiden CD1"FILE "Various Artists - Two Minutes To Midnight- A Millennium Tribute To Iron Maiden CD1.flac" WAVE TRACK 01 AUDIO TITLE "Number Of The Beast Intro" PERFORMER "Regan Kendrick" INDEX 01 00:00:00 TRACK 02 AUDIO TITLE "The Number Of The Beast" PERFORMER "Chris Neufeld of Downshifter/ Richard Kendrick" INDEX 00 00:24:15 INDEX 01 00:26:15 TRACK 03 AUDIO TITLE "Still Life" PERFORMER "Ronny Munroe" INDEX 00 04:57:67 INDEX 01 04:59:66 TRACK 04 AUDIO TITLE "Wasted Years" PERFORMER "Martian Honey" INDEX 00 09:33:57 INDEX 01 09:35:57 TRACK 05 AUDIO TITLE "Killers" PERFORMER "Electric Sister" INDEX 00 13:32:67 INDEX 01 13:34:66 TRACK 06 AUDIO TITLE "Wrathchild" PERFORMER "Tattoo Frank/ Leaving Eden" INDEX 00 19:16:55 INDEX 01 19:18:55 TRACK 07 AUDIO TITLE "Revelation" PERFORMER "MYSTIC-FORCE" INDEX 00 22:11:26 INDEX 01 22:13:26 TRACK 08 AUDIO TITLE "Die With Your Boots On" PERFORMER "Threat Level" INDEX 00 28:21:72 INDEX 01 28:23:72 TRACK 09 AUDIO TITLE "The Evil That Men Do" PERFORMER "Hachiman" INDEX 00 33:52:44 INDEX 01 33:54:43 TRACK 10 AUDIO TITLE "Children Of The Damned" PERFORMER "Fierce Atmospheres" INDEX 00 38:23:64 INDEX 01 38:25:64 TRACK 11 AUDIO TITLE "Rime Of The Ancient Mariner" PERFORMER "bUGbRAIN" INDEX 00 43:06:64 INDEX 01 43:08:64 TRACK 12 AUDIO TITLE "2 Minutes To Midnight" PERFORMER "American Hellbilly" INDEX 00 49:36:43 INDEX 01 49:38:43 TRACK 13 AUDIO TITLE "Hallowed Be Thy Name" PERFORMER "Soupbone" INDEX 00 55:39:35 INDEX 01 55:41:33 TRACK 14 AUDIO TITLE "Rainmaker" PERFORMER "D3VILMAYCRY" INDEX 00 60:15:55 INDEX 01 60:17:54 TRACK 15 AUDIO TITLE "Only The Good Die Young" PERFORMER "Sonem" INDEX 00 64:03:07 INDEX 01 64:05:07 TRACK 16 AUDIO TITLE "Running Free" PERFORMER "Paul Di'Anno" INDEX 00 68:34:07 INDEX 01 68:36:07 TRACK 17 AUDIO TITLE "Iron Maiden" PERFORMER "Dark The Sky" INDEX 00 71:31:25 INDEX 01 71:33:25

DR Log

foobar2000 1.3.13 / Замер динамического диапазона (DR) 1.1.1Дата отчёта: 2017-11-09 23:17:44
--------------------------------------------------------------------------------Статистика для: 11-Rime Of The Ancient MarinerКоличество сэмплов: 17186652Продолжительность: 6:30--------------------------------------------------------------------------------
Левый Правый
Пики: -0.20 дБ --- -0.20 дБСредний RMS: -8.96 дБ --- -8.40 дБDR канала: 6.71 дБ --- 6.50 дБ--------------------------------------------------------------------------------
Реальные значения DR: DR7
Частота: 44100 ГцКаналов: 2Разрядность: 16Битрейт: 1004 кбит/сКодек: FLAC================================================================================--------------------------------------------------------------------------------Анализ: Chris Neufeld of Downshifter/ Richard Kendrick / Two Minutes To Midnight: A Millennium Tribute To Iron Maiden CD1 (1) D3VILMAYCRY / Two Minutes To Midnight: A Millennium Tribute To Iron Maiden CD1 (2) Dark The Sky / Two Minutes To Midnight: A Millennium Tribute To Iron Maiden CD1 (3)--------------------------------------------------------------------------------
DR Пики RMS Продолжительность трека--------------------------------------------------------------------------------DR7 -0.20 дБ -7.93 дБ 4:34 02-The Number Of The BeastDR7 -0.20 дБ -7.98 дБ 3:47 14-RainmakerDR7 -0.20 дБ -7.69 дБ 3:41 17-Iron Maiden--------------------------------------------------------------------------------
Количество треков: 3Реальные значения DR: DR7
Частота: 44100 ГцКаналов: 2Разрядность: 16Битрейт: 1004 кбит/сКодек: FLAC================================================================================
--------------------------------------------------------------------------------Анализ: Electric Sister / Two Minutes To Midnight: A Millennium Tribute To Iron Maiden CD1 (1) Fierce Atmospheres / Two Minutes To Midnight: A Millennium Tribute To Iron Maiden CD1 (2)--------------------------------------------------------------------------------
DR Пики RMS Продолжительность трека--------------------------------------------------------------------------------DR6 -0.20 дБ -7.14 дБ 5:44 05-KillersDR7 -0.20 дБ -9.60 дБ 4:43 10-Children Of The Damned--------------------------------------------------------------------------------
Количество треков: 2Реальные значения DR: DR6
Частота: 44100 ГцКаналов: 2Разрядность: 16Битрейт: 1004 кбит/сКодек: FLAC================================================================================
--------------------------------------------------------------------------------Статистика для: 09-The Evil That Men DoКоличество сэмплов: 11963448Продолжительность: 4:31--------------------------------------------------------------------------------
Левый Правый
Пики: -0.20 дБ --- -0.20 дБСредний RMS: -5.96 дБ --- -6.30 дБDR канала: 5.02 дБ --- 5.31 дБ--------------------------------------------------------------------------------
Реальные значения DR: DR5
Частота: 44100 ГцКаналов: 2Разрядность: 16Битрейт: 1004 кбит/сКодек: FLAC================================================================================--------------------------------------------------------------------------------Анализ: Martian Honey / Two Minutes To Midnight: A Millennium Tribute To Iron Maiden CD1 (1) MYSTIC-FORCE / Two Minutes To Midnight: A Millennium Tribute To Iron Maiden CD1 (2) Paul Di'Anno / Two Minutes To Midnight: A Millennium Tribute To Iron Maiden CD1 (3)--------------------------------------------------------------------------------
DR Пики RMS Продолжительность трека--------------------------------------------------------------------------------DR9 -0.30 дБ -9.69 дБ 3:59 04-Wasted YearsDR6 -0.30 дБ -7.91 дБ 6:11 07-RevelationDR6 -0.30 дБ -7.23 дБ 2:57 16-Running Free--------------------------------------------------------------------------------
Количество треков: 3Реальные значения DR: DR7
Частота: 44100 ГцКаналов: 2Разрядность: 16Битрейт: 1004 кбит/сКодек: FLAC================================================================================
--------------------------------------------------------------------------------Анализ: Regan Kendrick / Two Minutes To Midnight: A Millennium Tribute To Iron Maiden CD1 (1) Ronny Munroe / Two Minutes To Midnight: A Millennium Tribute To Iron Maiden CD1 (2) Sonem / Two Minutes To Midnight: A Millennium Tribute To Iron Maiden CD1 (3)--------------------------------------------------------------------------------
DR Пики RMS Продолжительность трека--------------------------------------------------------------------------------DR15 -0.20 дБ -17.59 дБ 0:26 01-Number Of The Beast IntroDR5 -0.20 дБ -6.55 дБ 4:36 03-Still LifeDR5 -0.20 дБ -6.60 дБ 4:31 15-Only The Good Die Young--------------------------------------------------------------------------------
Количество треков: 3Реальные значения DR: DR9
Частота: 44100 ГцКаналов: 2Разрядность: 16Битрейт: 1004 кбит/сКодек: FLAC================================================================================
--------------------------------------------------------------------------------Статистика для: 13-Hallowed Be Thy NameКоличество сэмплов: 12183948Продолжительность: 4:36--------------------------------------------------------------------------------
Левый Правый
Пики: -0.30 дБ --- -0.10 дБСредний RMS: -7.50 дБ --- -7.95 дБDR канала: 5.50 дБ --- 6.16 дБ--------------------------------------------------------------------------------
Реальные значения DR: DR6
Частота: 44100 ГцКаналов: 2Разрядность: 16Битрейт: 1004 кбит/сКодек: FLAC================================================================================--------------------------------------------------------------------------------Анализ: Tattoo Frank/ Leaving Eden / Two Minutes To Midnight: A Millennium Tribute To Iron Maiden CD1 (1) Threat Level / Two Minutes To Midnight: A Millennium Tribute To Iron Maiden CD1 (2)--------------------------------------------------------------------------------
DR Пики RMS Продолжительность трека--------------------------------------------------------------------------------DR5 -0.11 дБ -6.30 дБ 2:55 06-WrathchildDR6 -0.20 дБ -7.06 дБ 5:31 08-Die With Your Boots On--------------------------------------------------------------------------------
Количество треков: 2Реальные значения DR: DR5
Частота: 44100 ГцКаналов: 2Разрядность: 16Битрейт: 1004 кбит/сКодек: FLAC================================================================================
foobar2000 1.3.13 / Замер динамического диапазона (DR) 1.1.1Дата отчёта: 2017-11-09 23:16:55
--------------------------------------------------------------------------------Статистика для: 12-2 Minutes To MidnightКоличество сэмплов: 16002420Продолжительность: 6:03--------------------------------------------------------------------------------
Левый Правый
Пики: -0.20 дБ --- -0.20 дБСредний RMS: -5.99 дБ --- -6.26 дБDR канала: 4.85 дБ --- 5.32 дБ--------------------------------------------------------------------------------
Реальные значения DR: DR5
Частота: 44100 ГцКаналов: 2Разрядность: 16Битрейт: 1004 кбит/сКодек: FLAC================================================================================

CD 2

01. Leaving Eden - The Trooper (4:27)
02. Tim "Ripper" Owens, Ira Black, Richard Kendrick - Aces High (4:46)
03. REACT - Be Quick Or Be Dead (3:31)
04. Mind Mechanics - Moonchild (5:23)
05. Agents of Exile - Remember Tomorrow (4:48)
06. Noise Disorder - Losfer Words (4:56)
07. Sinful Lilly - Die With Your Boots On II (5:52)
08. Richard Kendrick - The Whicker Man (4:50)
09. Derrick LeFevre and Chris Poland - Run To The Hills (3:55)
10. This Time Down - The Prisoner (5:48)
11. The Curse of Sorrow - Can I Play With Madness? (3:35)
12. Antiquus - Still Life II (4:51)
13. Al Solo/ Manuri - Fear The Dark (8:17)
14. The Furnace - Man On The Edge (4:31)
15. Dimenssion - The Trooper II (3:32)
16. Ravage - The Clairvoyant (4:32)

Лог создания рипа

Exact Audio Copy V1.1 from 23. June 2015
EAC extraction logfile from 10. November 2017, 17:59
Various Artists / Two Minutes To Midnight- A Millennium Tribute To Iron Maiden CD2
Used drive : MATSHITADVD+-RW SW830 Adapter: 1 ID: 0
Read mode : SecureUtilize accurate stream : YesDefeat audio cache : YesMake use of C2 pointers : No
Read offset correction : 6Overread into Lead-In and Lead-Out : NoFill up missing offset samples with silence : YesDelete leading and trailing silent blocks : NoNull samples used in CRC calculations : YesUsed interface : Native Win32 interface for Win NT & 2000
Used output format : User Defined EncoderSelected bitrate : 768 kBit/sQuality : HighAdd ID3 tag : NoCommand line compressor : C:\Program Files (x86)\Exact Audio Copy\FLAC\FLAC.EXEAdditional command line options : -6 -V -T "ARTIST=%artist%" -T "TITLE=%title%" -T "ALBUM=%albumtitle%" -T "DATE=%year%" -T "TRACKNUMBER=%tracknr%" -T "GENRE=%genre%" -T "COMMENT=%comment%" -T "BAND=%albuminterpret%" -T "ALBUMARTIST=%albuminterpret%" -T "COMPOSER=%composer%" %haslyrics%--tag-from-file=LYRICS="%lyricsfile%"%haslyrics% -T "DISCNUMBER=%cdnumber%" -T "TOTALDISCS=%totalcds%" -T "TOTALTRACKS=%numtracks%" %hascover%--picture="%coverfile%"%hascover% %source% -o %dest%
TOC of the extracted CD
Track | Start | Length | Start sector | End sector --------------------------------------------------------- 1 | 0:00.00 | 4:27.56 | 0 | 20080 2 | 4:27.56 | 4:46.04 | 20081 | 41534 3 | 9:13.60 | 3:31.00 | 41535 | 57359 4 | 12:44.60 | 5:23.46 | 57360 | 81630 5 | 18:08.31 | 4:48.59 | 81631 | 103289 6 | 22:57.15 | 4:56.00 | 103290 | 125489 7 | 27:53.15 | 5:52.32 | 125490 | 151921 8 | 33:45.47 | 4:50.12 | 151922 | 173683 9 | 38:35.59 | 3:55.51 | 173684 | 191359 10 | 42:31.35 | 5:48.40 | 191360 | 217499 11 | 48:20.00 | 3:35.09 | 217500 | 233633 12 | 51:55.09 | 4:51.21 | 233634 | 255479 13 | 56:46.30 | 8:17.28 | 255480 | 292782 14 | 65:03.58 | 4:31.29 | 292783 | 313136 15 | 69:35.12 | 3:32.00 | 313137 | 329036 16 | 73:07.12 | 4:32.09 | 329037 | 349445
Range status and errors
Selected range
Filename C:\Users\Boris\Desktop\kpnemo.eu\CD2\Various Artists - Two Minutes To Midnight- A Millennium Tribute To Iron Maiden CD2.wav
Peak level 97.7 % Extraction speed 8.5 X Range quality 99.9 % Test CRC F97B5A3C Copy CRC F97B5A3C Copy OK
No errors occurred
AccurateRip summary
Track 1 not present in databaseTrack 2 not present in databaseTrack 3 not present in databaseTrack 4 not present in databaseTrack 5 not present in databaseTrack 6 not present in databaseTrack 7 not present in databaseTrack 8 not present in databaseTrack 9 not present in databaseTrack 10 not present in databaseTrack 11 not present in databaseTrack 12 not present in databaseTrack 13 not present in databaseTrack 14 not present in databaseTrack 15 not present in databaseTrack 16 not present in database
None of the tracks are present in the AccurateRip database
End of status report
---- CUETools DB Plugin V2.1.6
[CTDB TOCID: 8pEZJwKo7qVLVNp.Syk9DMggj4I-] disk not present in databaseSubmit result: 8pEZJwKo7qVLVNp.Syk9DMggj4I- has been uploaded
==== Log checksum 16ABAD675FB1EFD3475EF22A7BE8EAC83323EB0709FEEAC7882D79FFFA3E3714 ====

Содержание индексной карты (.CUE)

REM GENRE "Heavy Metal"REM DATE 2013REM DISCID F1123310REM COMMENT "ExactAudioCopy v1.1"PERFORMER "Various Artists"TITLE "Two Minutes To Midnight- A Millennium Tribute To Iron Maiden CD2"FILE "Various Artists - Two Minutes To Midnight- A Millennium Tribute To Iron Maiden CD2.flac" WAVE TRACK 01 AUDIO TITLE "The Trooper" PERFORMER "Leaving Eden" INDEX 01 00:00:00 TRACK 02 AUDIO TITLE "Aces High" PERFORMER "Tim 'Ripper' Owens, Ira Black, Richard Kendrick" INDEX 00 04:25:56 INDEX 01 04:27:56 TRACK 03 AUDIO TITLE "Be Quick Or Be Dead" PERFORMER "REACT" INDEX 00 09:11:60 INDEX 01 09:13:60 TRACK 04 AUDIO TITLE "Moonchild" PERFORMER "Mind Mechanics" INDEX 00 12:42:60 INDEX 01 12:44:60 TRACK 05 AUDIO TITLE "Remember Tomorrow" PERFORMER "Agents of Exile" INDEX 00 18:06:31 INDEX 01 18:08:31 TRACK 06 AUDIO TITLE "Losfer Words" PERFORMER "Noise Disorder" INDEX 00 22:55:15 INDEX 01 22:57:15 TRACK 07 AUDIO TITLE "Die With Your Boots On II" PERFORMER "Sinful Lilly" INDEX 00 27:51:15 INDEX 01 27:53:15 TRACK 08 AUDIO TITLE "The Whicker Man" PERFORMER "Richard Kendrick" INDEX 00 33:43:47 INDEX 01 33:45:47 TRACK 09 AUDIO TITLE "Run To The Hills" PERFORMER "Derrick LeFevre and Chris Poland" INDEX 00 38:33:59 INDEX 01 38:35:59 TRACK 10 AUDIO TITLE "The Prisoner" PERFORMER "This Time Down" INDEX 00 42:29:35 INDEX 01 42:31:35 TRACK 11 AUDIO TITLE "Can I Play With Madness?" PERFORMER "The Curse of Sorrow" INDEX 00 48:18:00 INDEX 01 48:20:00 TRACK 12 AUDIO TITLE "Still Life II" PERFORMER "Antiquus" INDEX 00 51:53:09 INDEX 01 51:55:09 TRACK 13 AUDIO TITLE "Fear The Dark" PERFORMER "Al Solo/ Manuri" INDEX 00 56:44:30 INDEX 01 56:46:30 TRACK 14 AUDIO TITLE "Man On The Edge" PERFORMER "The Furnace" INDEX 00 65:01:58 INDEX 01 65:03:58 TRACK 15 AUDIO TITLE "The Trooper II" PERFORMER "Dimenssion" INDEX 00 69:33:12 INDEX 01 69:35:12 TRACK 16 AUDIO TITLE "The Clairvoyant" PERFORMER "Ravage" INDEX 00 73:05:12 INDEX 01 73:07:12

DR Log

foobar2000 1.3.13 / Замер динамического диапазона (DR) 1.1.1Дата отчёта: 2017-11-10 18:06:42
--------------------------------------------------------------------------------Анализ: Agents of Exile / Two Minutes To Midnight- A Millennium Tribute To Iron Maiden CD2 (1) Al Solo/ Manuri / Two Minutes To Midnight- A Millennium Tribute To Iron Maiden CD2 (2)--------------------------------------------------------------------------------
DR Пики RMS Продолжительность трека--------------------------------------------------------------------------------DR5 -0.20 дБ -7.04 дБ 4:49 05-Remember TomorrowDR5 -0.20 дБ -6.42 дБ 8:17 13-Fear The Dark--------------------------------------------------------------------------------
Количество треков: 2Реальные значения DR: DR5
Частота: 44100 ГцКаналов: 2Разрядность: 16Битрейт: 1014 кбит/сКодек: FLAC================================================================================
--------------------------------------------------------------------------------Статистика для: 12-Still Life IIКоличество сэмплов: 12845448Продолжительность: 4:51--------------------------------------------------------------------------------
Левый Правый
Пики: -0.20 дБ --- -0.20 дБСредний RMS: -7.48 дБ --- -7.12 дБDR канала: 6.24 дБ --- 5.96 дБ--------------------------------------------------------------------------------
Реальные значения DR: DR6
Частота: 44100 ГцКаналов: 2Разрядность: 16Битрейт: 1014 кбит/сКодек: FLAC================================================================================--------------------------------------------------------------------------------Анализ: Derrick LeFevre and Chris Poland / Two Minutes To Midnight- A Millennium Tribute To Iron Maiden CD2 (1) Dimenssion / Two Minutes To Midnight- A Millennium Tribute To Iron Maiden CD2 (2)--------------------------------------------------------------------------------
DR Пики RMS Продолжительность трека--------------------------------------------------------------------------------DR6 -0.20 дБ -6.79 дБ 3:56 09-Run To The HillsDR5 -0.20 дБ -6.99 дБ 3:32 15-The Trooper II--------------------------------------------------------------------------------
Количество треков: 2Реальные значения DR: DR5
Частота: 44100 ГцКаналов: 2Разрядность: 16Битрейт: 1014 кбит/сКодек: FLAC================================================================================
--------------------------------------------------------------------------------Анализ: Leaving Eden / Two Minutes To Midnight- A Millennium Tribute To Iron Maiden CD2 (1) Mind Mechanics / Two Minutes To Midnight- A Millennium Tribute To Iron Maiden CD2 (2) Noise Disorder / Two Minutes To Midnight- A Millennium Tribute To Iron Maiden CD2 (3) Ravage / Two Minutes To Midnight- A Millennium Tribute To Iron Maiden CD2 (4)--------------------------------------------------------------------------------
DR Пики RMS Продолжительность трека--------------------------------------------------------------------------------DR7 -0.20 дБ -7.72 дБ 4:28 01-The TrooperDR4 -0.20 дБ -5.73 дБ 5:24 04-MoonchildDR6 -0.20 дБ -7.06 дБ 4:56 06-Losfer WordsDR5 -0.20 дБ -6.86 дБ 4:32 16-The Clairvoyant--------------------------------------------------------------------------------
Количество треков: 4Реальные значения DR: DR6
Частота: 44100 ГцКаналов: 2Разрядность: 16Битрейт: 1014 кбит/сКодек: FLAC================================================================================
--------------------------------------------------------------------------------Анализ: REACT / Two Minutes To Midnight- A Millennium Tribute To Iron Maiden CD2 (1) Richard Kendrick / Two Minutes To Midnight- A Millennium Tribute To Iron Maiden CD2 (2)--------------------------------------------------------------------------------
DR Пики RMS Продолжительность трека--------------------------------------------------------------------------------DR7 -0.20 дБ -8.82 дБ 3:31 03-Be Quick Or Be DeadDR6 -0.20 дБ -7.58 дБ 4:50 08-The Whicker Man--------------------------------------------------------------------------------
Количество треков: 2Реальные значения DR: DR7
Частота: 44100 ГцКаналов: 2Разрядность: 16Битрейт: 1014 кбит/сКодек: FLAC================================================================================
--------------------------------------------------------------------------------Анализ: Sinful Lilly / Two Minutes To Midnight- A Millennium Tribute To Iron Maiden CD2 (1) The Curse of Sorrow / Two Minutes To Midnight- A Millennium Tribute To Iron Maiden CD2 (2) The Furnace / Two Minutes To Midnight- A Millennium Tribute To Iron Maiden CD2 (3)--------------------------------------------------------------------------------
DR Пики RMS Продолжительность трека--------------------------------------------------------------------------------DR6 -0.20 дБ -6.96 дБ 5:52 07-Die With Your Boots On IIDR7 -0.20 дБ -8.05 дБ 3:35 11-Can I Play With Madness?DR6 -0.20 дБ -7.07 дБ 4:31 14-Man On The Edge--------------------------------------------------------------------------------
Количество треков: 3Реальные значения DR: DR6
Частота: 44100 ГцКаналов: 2Разрядность: 16Битрейт: 1014 кбит/сКодек: FLAC================================================================================
--------------------------------------------------------------------------------Статистика для: 10-The PrisonerКоличество сэмплов: 15370320Продолжительность: 5:49--------------------------------------------------------------------------------
Левый Правый
Пики: -0.20 дБ --- -0.20 дБСредний RMS: -8.30 дБ --- -6.91 дБDR канала: 6.72 дБ --- 5.58 дБ--------------------------------------------------------------------------------
Реальные значения DR: DR6
Частота: 44100 ГцКаналов: 2Разрядность: 16Битрейт: 1014 кбит/сКодек: FLAC================================================================================--------------------------------------------------------------------------------Статистика для: 02-Aces HighКоличество сэмплов: 12614952Продолжительность: 4:46--------------------------------------------------------------------------------
Левый Правый
Пики: -0.20 дБ --- -0.20 дБСредний RMS: -7.58 дБ --- -7.51 дБDR канала: 6.18 дБ --- 6.27 дБ--------------------------------------------------------------------------------
Реальные значения DR: DR6
Частота: 44100 ГцКаналов: 2Разрядность: 16Битрейт: 1014 кбит/сКодек: FLAC================================================================================


[torrentc.info]_t_5479265.torrent
Торрент: Зарегистрирован ·  [ 2017-11-14 19:42 ] ·  91ec48c31df059bd26b4f158623b27f0105b6d8d

15 KB

Статус: проверено
Скачан: 0 раз
Размер: 1.29 GB
Оценка: 
(Голосов: 0)
Сказали спасибо: 0  Спасибо
Похожие темы
[Профиль]    [ЛС]
Показать сообщения:    
Ответить на тему

Текущее время: Сегодня 13:32

Часовой пояс: GMT + 7



Вы не можете начинать темы
Вы не можете отвечать на сообщения
Вы не можете редактировать свои сообщения
Вы не можете удалять свои сообщения
Вы не можете голосовать в опросах
Вы не можете прикреплять файлы к сообщениям
Вы можете скачивать файлы