(Pop / R&B / Soul) [CD] Guy Sebastian - Conscious - 2017, FLAC (tracks+.cue), lossless

Ответить на тему
Статистика раздачи [Обновить пиров]
Размер:  279 MB   |    Зарегистрирован:  1 год   |    Скачан:  0 раз

Полного источника не было: Никогда

 
   
 
 
 
Автор Сообщение

torrentc.info

Создавать темы 13-Ноя-2017 19:31

[Цитировать]

Guy Sebastian / Conscious
Жанр: Pop / R&B / Soul
Носитель: CD
Год издания: 2017
Издатель (лейбл): Sony Music
Номер по каталогу: 0886446778143
Страна исполнителя (группы): Australia
Аудиокодек: FLAC (*.flac)
Тип рипа: tracks+.cue
Битрейт аудио: lossless
Продолжительность: 44:23
Источник (релизер): lemmy
Наличие сканов в содержимом раздачи: нет
Треклист:
01. High On Me (03:17)
02. Bloodstone (03:24)
03. Set In Stone (03:41)
04. Vesuvius (04:17)
05. Sober (03:58)
06. Drink Driving (03:44)
07. Chasing Lights (03:30)
08. Keep Me Coming Back (03:12)
09. Something (03:08)
10. Stay In Bed (03:35)
11. Exclusive (03:56)
12. Reprise (04:33)

Лог создания рипа

Exact Audio Copy V1.3 from 2. September 2016
EAC extraction logfile from 5. November 2017, 11:48
Guy Sebastian / Conscious
Used drive : TSSTcorpDVD-ROM SN-108BB Adapter: 1 ID: 0
Read mode : SecureUtilize accurate stream : YesDefeat audio cache : YesMake use of C2 pointers : No
Read offset correction : 6Overread into Lead-In and Lead-Out : NoFill up missing offset samples with silence : YesDelete leading and trailing silent blocks : NoNull samples used in CRC calculations : YesUsed interface : Native Win32 interface for Win NT & 2000Gap handling : Appended to previous track
Used output format : User Defined EncoderSelected bitrate : 1024 kBit/sQuality : HighAdd ID3 tag : NoCommand line compressor : C:\flac-1.3.2-win\win64\flac.exeAdditional command line options : -8 -e -V -T "ARTIST=%artist%" -T "TITLE=%title%" -T "ALBUM=%albumtitle%" -T "DATE=%year%" -T "TRACKNUMBER=%tracknr%" -T "GENRE=%genre%" -T "PERFORMER=%albuminterpret%" -T "COMPOSER=%composer%" %haslyrics%--tag-from-file=LYRICS="%lyricsfile%"%haslyrics% -T "ALBUMARTIST=%albumartist%" -T "DISCNUMBER=%cdnumber%" -T "TOTALDISCS=%totalcds%" -T "TOTALTRACKS=%numtracks%" -T "COMMENT=%comment%" %source% -o %dest%
TOC of the extracted CD
Track | Start | Length | Start sector | End sector --------------------------------------------------------- 1 | 0:00.00 | 3:17.74 | 0 | 14848 2 | 3:17.74 | 3:24.48 | 14849 | 30196 3 | 6:42.47 | 3:41.72 | 30197 | 46843 4 | 10:24.44 | 4:17.51 | 46844 | 66169 5 | 14:42.20 | 3:58.69 | 66170 | 84088 6 | 18:41.14 | 3:44.05 | 84089 | 100893 7 | 22:25.19 | 3:30.16 | 100894 | 116659 8 | 25:55.35 | 3:12.64 | 116660 | 131123 9 | 29:08.24 | 3:08.63 | 131124 | 145286 10 | 32:17.12 | 3:35.04 | 145287 | 161415 11 | 35:52.16 | 3:56.17 | 161416 | 179132 12 | 39:48.33 | 4:33.54 | 179133 | 199661
Track 1
Filename C:\Guy Sebastian - Conscious (2017) [CD - FLAC] {Sony Music - 88985487452}\01 - High On Me.wav
Pre-gap length 0:00:02.00
Peak level 99.8 % Extraction speed 2.5 X Track quality 100.0 % Test CRC 789F6500 Copy CRC 789F6500 Track not present in AccurateRip database Copy OK
Track 2
Filename C:\Guy Sebastian - Conscious (2017) [CD - FLAC] {Sony Music - 88985487452}\02 - Bloodstone.wav
Peak level 99.8 % Extraction speed 2.8 X Track quality 100.0 % Test CRC 1B6F6EF4 Copy CRC 1B6F6EF4 Track not present in AccurateRip database Copy OK
Track 3
Filename C:\Guy Sebastian - Conscious (2017) [CD - FLAC] {Sony Music - 88985487452}\03 - Set In Stone.wav
Peak level 99.8 % Extraction speed 3.0 X Track quality 100.0 % Test CRC 5A44461D Copy CRC 5A44461D Track not present in AccurateRip database Copy OK
Track 4
Filename C:\Guy Sebastian - Conscious (2017) [CD - FLAC] {Sony Music - 88985487452}\04 - Vesuvius.wav
Peak level 99.8 % Extraction speed 3.3 X Track quality 100.0 % Test CRC 48D68F3C Copy CRC 48D68F3C Track not present in AccurateRip database Copy OK
Track 5
Filename C:\Guy Sebastian - Conscious (2017) [CD - FLAC] {Sony Music - 88985487452}\05 - Sober.wav
Peak level 99.8 % Extraction speed 3.5 X Track quality 100.0 % Test CRC D174BF38 Copy CRC D174BF38 Track not present in AccurateRip database Copy OK
Track 6
Filename C:\Guy Sebastian - Conscious (2017) [CD - FLAC] {Sony Music - 88985487452}\06 - Drink Driving.wav
Peak level 99.8 % Extraction speed 2.9 X Track quality 99.9 % Test CRC 8B06F54F Copy CRC 8B06F54F Track not present in AccurateRip database Copy OK
Track 7
Filename C:\Guy Sebastian - Conscious (2017) [CD - FLAC] {Sony Music - 88985487452}\07 - Chasing Lights.wav
Peak level 94.1 % Extraction speed 3.8 X Track quality 100.0 % Test CRC F982DA06 Copy CRC F982DA06 Track not present in AccurateRip database Copy OK
Track 8
Filename C:\Guy Sebastian - Conscious (2017) [CD - FLAC] {Sony Music - 88985487452}\08 - Keep Me Coming Back.wav
Peak level 99.8 % Extraction speed 3.9 X Track quality 100.0 % Test CRC 3EDA46B2 Copy CRC 3EDA46B2 Track not present in AccurateRip database Copy OK
Track 9
Filename C:\Guy Sebastian - Conscious (2017) [CD - FLAC] {Sony Music - 88985487452}\09 - Something.wav
Peak level 99.8 % Extraction speed 4.0 X Track quality 100.0 % Test CRC ACE9CD1A Copy CRC ACE9CD1A Track not present in AccurateRip database Copy OK
Track 10
Filename C:\Guy Sebastian - Conscious (2017) [CD - FLAC] {Sony Music - 88985487452}\10 - Stay In Bed.wav
Peak level 99.8 % Extraction speed 4.2 X Track quality 100.0 % Test CRC 5BB8079A Copy CRC 5BB8079A Track not present in AccurateRip database Copy OK
Track 11
Filename C:\Guy Sebastian - Conscious (2017) [CD - FLAC] {Sony Music - 88985487452}\11 - Exclusive.wav
Peak level 99.8 % Extraction speed 4.4 X Track quality 100.0 % Test CRC A6F67DB0 Copy CRC A6F67DB0 Track not present in AccurateRip database Copy OK
Track 12
Filename C:\Guy Sebastian - Conscious (2017) [CD - FLAC] {Sony Music - 88985487452}\12 - Reprise.wav
Peak level 99.8 % Extraction speed 4.7 X Track quality 100.0 % Test CRC 90F8A180 Copy CRC 90F8A180 Track not present in AccurateRip database Copy OK
None of the tracks are present in the AccurateRip database
No errors occurred
End of status report
---- CUETools DB Plugin V2.1.6
[CTDB TOCID: TvAfcLHIwAVMtZozutx6ygFKug0-] database access error: The remote name could not be resolved: 'db.cuetools.net'
==== Log checksum 1CB68E576CD1EAE50FD6D921D7D01C8FBBB1DA25303EE8FD22CA2950F0B1AD39 ====

Содержание индексной карты (.CUE)

REM GENRE PopREM DATE 2017REM DISCID A40A660CREM COMMENT "ExactAudioCopy v1.3"CATALOG 0889854874520PERFORMER "Guy Sebastian"TITLE "Conscious"REM COMPOSER ""FILE "01 - High On Me.wav" WAVE TRACK 01 AUDIO TITLE "High On Me" PERFORMER "Guy Sebastian" REM COMPOSER "" ISRC AUBM01700656 INDEX 01 00:00:00FILE "02 - Bloodstone.wav" WAVE TRACK 02 AUDIO TITLE "Bloodstone" PERFORMER "Guy Sebastian" REM COMPOSER "" ISRC AUBM01700692 INDEX 01 00:00:00FILE "03 - Set In Stone.wav" WAVE TRACK 03 AUDIO TITLE "Set In Stone" PERFORMER "Guy Sebastian" REM COMPOSER "" ISRC AUBM01600386 INDEX 01 00:00:00FILE "04 - Vesuvius.wav" WAVE TRACK 04 AUDIO TITLE "Vesuvius" PERFORMER "Guy Sebastian" REM COMPOSER "" ISRC AUBM01700693 INDEX 01 00:00:00FILE "05 - Sober.wav" WAVE TRACK 05 AUDIO TITLE "Sober" PERFORMER "Guy Sebastian" REM COMPOSER "" ISRC AUBM01700694 INDEX 01 00:00:00FILE "06 - Drink Driving.wav" WAVE TRACK 06 AUDIO TITLE "Drink Driving" PERFORMER "Guy Sebastian" REM COMPOSER "" ISRC AUBM01700695 INDEX 01 00:00:00FILE "07 - Chasing Lights.wav" WAVE TRACK 07 AUDIO TITLE "Chasing Lights" PERFORMER "Guy Sebastian" REM COMPOSER "" ISRC AUBM01700696 INDEX 01 00:00:00FILE "08 - Keep Me Coming Back.wav" WAVE TRACK 08 AUDIO TITLE "Keep Me Coming Back" PERFORMER "Guy Sebastian" REM COMPOSER "" ISRC AUBM01700696 INDEX 01 00:00:00FILE "09 - Something.wav" WAVE TRACK 09 AUDIO TITLE "Something" PERFORMER "Guy Sebastian" REM COMPOSER "" ISRC AUBM01700698 INDEX 01 00:00:00FILE "10 - Stay In Bed.wav" WAVE TRACK 10 AUDIO TITLE "Stay In Bed" PERFORMER "Guy Sebastian" REM COMPOSER "" ISRC AUBM01700699 INDEX 01 00:00:00FILE "11 - Exclusive.wav" WAVE TRACK 11 AUDIO TITLE "Exclusive" PERFORMER "Guy Sebastian" REM COMPOSER "" ISRC AUBM01700700 INDEX 01 00:00:00FILE "12 - Reprise.wav" WAVE TRACK 12 AUDIO TITLE "Reprise" PERFORMER "Guy Sebastian" REM COMPOSER "" ISRC AUBM01700701 INDEX 01 00:00:00

Об альбоме (сборнике)

Lossy


[torrentc.info]_t_5477190.torrent
Торрент: Зарегистрирован ·  [ 2017-11-13 19:30 ] ·  8c3d5f96715a43cf1e64c8b083b1d8af315f3117

23 KB

Статус: проверено
Скачан: 0 раз
Размер: 279 MB
Оценка: 
(Голосов: 0)
Сказали спасибо: 0  Спасибо
Похожие темы
[Профиль]    [ЛС]
Показать сообщения:    
Ответить на тему

Текущее время: Сегодня 05:21

Часовой пояс: GMT + 7



Вы не можете начинать темы
Вы не можете отвечать на сообщения
Вы не можете редактировать свои сообщения
Вы не можете удалять свои сообщения
Вы не можете голосовать в опросах
Вы не можете прикреплять файлы к сообщениям
Вы можете скачивать файлы