Дон Кихот (Михаил Левитин) [2017, трагифарс, SATRip] Московский театр «Эрмитаж»

Ответить на тему
Статистика раздачи [Обновить пиров]
Размер:  2.18 GB   |    Зарегистрирован:  10 месяцев 14 дней   |    Скачан:  0 раз

Полного источника не было: 4 месяца 26 дней

Личеров:  1  [  0 KB/s  ]   Подробная статистика скачивающих
 
   
 
 
 
Автор Сообщение

torrentc.info

Создавать темы 04-Ноя-2017 23:06

[Цитировать]

Дон Кихот (2 действия) Название театра: Московский театр «Эрмитаж».
Год выхода: 2017.
Жанр: трагифарс.
Продолжительность: 01:53:29 + 01:21:46 (03:15:15).
Режиссер: народный артист России Михаил Левитин.
Действующие лица и исполнители:
Дон Кихот - народный артист России Борис Романов,
Росинант - заслуженная артистка России Дарья Белоусова,
Санчо Панса - Сергей Олексяк,
Серый - Алла Черных,
Мавр - Денис Назаренко,
Сансон Карраско - Станислав Сухарев,
Альдонса - заслуженная артистка России Ольга Левитина,
Ключница - заслуженная артистка России Галина Морачева,
Лиценциат - заслуженный артист России Алексей Шулин,
Цирюльник - Константин Тумилович,
Антония - Алевтина Пузырникова,
Мариторнес - заслуженная артистка России Екатерина Тенета,
Герцог - Павел Мамонов,
Герцогиня - Маина Чижевская,
Духовник - заслуженный артист России Владимир Михайловский.
Купцы, погонщики мулов, каторжники: Петр Кудряшов, Евгений Фроленков, Сергей Щепачев, Константин Тумилович, Данила Шевченко, Сергей Бесхлебнов, Василий Корсунов.
О спектакле:
Михаил Левитин:
Приходит такое время, когда нужно ставить о том, что ты знаешь лучше всего к этой минуте - о возрасте. Загадочное время жизни человека, и может быть, самое интересное, если длится оно достойно. Как у Дон Кихота - уже больше 400 лет. Он не стареет и не молодеет, у него один очень-очень солидный возраст. В этом возрасте он ухитряется вести себя как роскошный, смелый, прекрасный и добрый молодой человек.
Спектакль ставится в композиции из нескольких вариантов "Дон Кихота". На первом месте Сервантес, его мы учитываем, как только можем. Какие-то сцены сделал я сам, кое-что берем из булгаковской пьесы, которая интонационно, при всей своей красоте, все же немного архаична. Вопреки привычке и традиции рифмовать Сервантеса с одной лишь испанской культурой, мы вплетаем в ткань спектакля и стихи выдающегося француза - Жака Превера.
Этот спектакль - прогулка маргинала, - человека, существующего и держащего в себе культуру на протяжении четырехсот лет, - прогулка перед смертью. Ему интересно, что стряслось с людьми, каким он мир оставляет, кому нужен "Дон Кихот" Сервантеса? Может быть, он никому и не нужен вовсе?
При всех горьких минутах, которые обязательно возникнут в спектакле, существует огромное количество комических ситуаций, интермедии комедийного толка и плана. Думаю, не всякий зритель разберется, присутствует ли он на фарсе или же на трагедии.

Дополнительная информация:
Страна: Россия .
Выпущено: Московский театр «Эрмитаж», Культура.рф.
Авторы: Мигель де Сервантес, Михаил Булгаков, Жак Превер, народный артист России Михаил Левитин.
Пьеса и постановка: заслуженный деятель искусств РСФСР Михаил Левитин.
Художник: народный художник России Сергей Бархин.
Композитор: народный артист России Владимир Дашкевич.
Художник по костюмам: Мария Кривцова.
Музыкальное оформление: Эдуард Мельников.
Премьера спектакля состоялась 25 мая 2017 года.

О спектакле.


Качество видео:...SATRip
Формат файла:.................AVI
Видео:..640x368 (1.74:1), 25 fps, XviD MPEG-4 ~1459 kbps avg, 0.25 bit/pixel
Аудио:..44.100 kHz, MPEG Layer 3, 2 ch, ~128.00 kbps avg

Отчет Media Info

1-е действие
General
Complete name : Don.Kihot_Teatr.Ermitazh.(2.dejstviya).2017.XviD.SATRip.fenixclub\Don.Kihot_Teatr.Ermitazh.2017_1-e.dejstvie.avi
Format : AVI
Format/Info : Audio Video Interleave
File size : 1.27 GiB
Duration : 1h 53mn
Overall bit rate : 1 598 Kbps
Writing application : VirtualDubModRus 1.5.10.2 (build 2542/release)
Writing library : VirtualDub build 32842/release
Video
ID : 0
Format : MPEG-4 Visual
Format profile : Advanced Simple@L5
Format settings, BVOP : 2
Format settings, QPel : No
Format settings, GMC : No warppoints
Format settings, Matrix : Default (MPEG)
Codec ID : XVID
Codec ID/Hint : XviD
Duration : 1h 53mn
Bit rate : 1 460 Kbps
Width : 640 pixels
Height : 368 pixels
Display aspect ratio : 1.739
Frame rate : 25.000 fps
Color space : YUV
Chroma subsampling : 4:2:0
Bit depth : 8 bits
Scan type : Progressive
Compression mode : Lossy
Bits/(Pixel*Frame) : 0.248
Stream size : 1.16 GiB (91%)
Writing library : XviD 73
Audio
ID : 1
Format : MPEG Audio
Format version : Version 1
Format profile : Layer 3
Mode : Joint stereo
Mode extension : MS Stereo
Codec ID : 55
Codec ID/Hint : MP3
Duration : 1h 53mn
Bit rate mode : Constant
Bit rate : 128 Kbps
Channel(s) : 2 channels
Sampling rate : 44.1 KHz
Compression mode : Lossy
Stream size : 104 MiB (8%)
Alignment : Split accross interleaves
Interleave, duration : 40 ms (1.00 video frame)
Interleave, preload duratio : 500 ms
Writing library : LAME3.98.2
2-е действие
General
Complete name : Don.Kihot_Teatr.Ermitazh.(2.dejstviya).2017.XviD.SATRip.fenixclub\Don.Kihot_Teatr.Ermitazh.2017_2-e.dejstvie.avi
Format : AVI
Format/Info : Audio Video Interleave
File size : 934 MiB
Duration : 1h 21mn
Overall bit rate : 1 598 Kbps
Writing application : VirtualDubModRus 1.5.10.2 (build 2542/release)
Writing library : VirtualDub build 32842/release
Video
ID : 0
Format : MPEG-4 Visual
Format profile : Advanced Simple@L5
Format settings, BVOP : 2
Format settings, QPel : No
Format settings, GMC : No warppoints
Format settings, Matrix : Default (MPEG)
Codec ID : XVID
Codec ID/Hint : XviD
Duration : 1h 21mn
Bit rate : 1 460 Kbps
Width : 640 pixels
Height : 368 pixels
Display aspect ratio : 1.739
Frame rate : 25.000 fps
Color space : YUV
Chroma subsampling : 4:2:0
Bit depth : 8 bits
Scan type : Progressive
Compression mode : Lossy
Bits/(Pixel*Frame) : 0.248
Stream size : 854 MiB (91%)
Writing library : XviD 73
Audio
ID : 1
Format : MPEG Audio
Format version : Version 1
Format profile : Layer 3
Mode : Joint stereo
Mode extension : MS Stereo
Codec ID : 55
Codec ID/Hint : MP3
Duration : 1h 21mn
Bit rate mode : Constant
Bit rate : 128 Kbps
Channel(s) : 2 channels
Sampling rate : 44.1 KHz
Compression mode : Lossy
Stream size : 74.9 MiB (8%)
Alignment : Split accross interleaves
Interleave, duration : 40 ms (1.00 video frame)
Interleave, preload duratio : 500 ms
Writing library : LAME3.98.2

Скриншоты



[torrentc.info]_t_5475110.torrent
Торрент: Зарегистрирован ·  [ 2017-11-04 23:06 ] ·  365459afd1bbdb4f3700b425da81b3b03ad6e141

12 KB

Статус: проверено
Скачан: 0 раз
Размер: 2.18 GB
Оценка: 
(Голосов: 0)
Сказали спасибо: 0  Спасибо
Похожие темы
[Профиль]    [ЛС]
Показать сообщения:    
Ответить на тему

Текущее время: Сегодня 08:21

Часовой пояс: GMT + 7



Вы не можете начинать темы
Вы не можете отвечать на сообщения
Вы не можете редактировать свои сообщения
Вы не можете удалять свои сообщения
Вы не можете голосовать в опросах
Вы не можете прикреплять файлы к сообщениям
Вы можете скачивать файлы