Двое с большой дороги (Альбер Мелик-Пашаев) [2016, лирическая комедия, WEB-DLRip] Театр им. М. А. Булгакова, г. Москва

Ответить на тему
Статистика раздачи [Обновить пиров]
Размер:  1.09 GB   |    Зарегистрирован:  1 год 1 месяц   |    Скачан:  1 раз

Полного источника не было: 7 месяцев 18 дней

 
   
 
 
 
Автор Сообщение

torrentc.info

Создавать темы 28-Окт-2017 22:48

[Цитировать]

Двое с большой дороги Название театра: Театр им. М. А. Булгакова г. Москва.
Год выхода: 2016.
Жанр: лирическая комедия.
Продолжительность: 01:15:25.
Режиссер: Альбер Мелик-Пашаев.
Действующие лица и исполнители:
Шишкин - Альбер Мелик-Пашаев,
Ирина - Анна Троянская.
О спектакле:
Ночью в квартире встречаются двое. На первый взгляд все выглядит так, будто он – вор, залезший в квартиру, а она – хозяйка, которая, испугавшись, наставляет на него пистолет. Впоследствии герои переживают множество метаморфоз в глазах зрителей. Герой из вора превращается в якобы бывшего любовника, снова вора, потом в стража порядка, где-то между делом чуть было даже не становится братом героини, хотя всего лишь символически, и, в конце концов, все-таки оказывается вором. Правда в том, что и героиня тоже вовсе не безвинная жертва взлома, а обыкновенная домушница...
Дополнительная информация:
Страна: Россия .
Автор: Виктор Мережко.
Музыка: А. Яцько.
О театре.
О спектакле.

Еще постер


Рип sharky.

Качество видео:...WEB-DLRip
Формат файла:.................AVI
Видео:..704x400 (1.76:1), 25 fps, DivX Codec 4.x ~1930 kbps avg, 0.27 bit/pixel
Аудио:..44.100 kHz, MPEG Layer 3, 2 ch, ~128.00 kbps avg

Отчет Media Info

General
Complete name : Dvoe.s.bol'shoj.dorogi_Teatr.im.Bulgakova.2016.DivX.WEB-DLRip.fenixclub.avi
Format : AVI
Format/Info : Audio Video Interleave
File size : 1.09 GiB
Duration : 1h 15mn
Overall bit rate : 2 069 Kbps
Video
ID : 0
Format : MPEG-4 Visual
Format settings, BVOP : 1
Format settings, QPel : No
Format settings, GMC : No warppoints
Format settings, Matrix : Default (H.263)
Codec ID : DX50
Codec ID/Hint : DivX 5
Duration : 1h 15mn
Bit rate : 1 931 Kbps
Width : 704 pixels
Height : 400 pixels
Display aspect ratio : 16:9
Frame rate : 25.000 fps
Color space : YUV
Chroma subsampling : 4:2:0
Bit depth : 8 bits
Scan type : Progressive
Compression mode : Lossy
Bits/(Pixel*Frame) : 0.274
Stream size : 1.02 GiB (93%)
Title : Video
Writing library : DivX 3013
Audio
ID : 1
Format : MPEG Audio
Format version : Version 1
Format profile : Layer 3
Codec ID : 55
Codec ID/Hint : MP3
Duration : 1h 15mn
Bit rate mode : Constant
Bit rate : 128 Kbps
Channel(s) : 2 channels
Sampling rate : 44.1 KHz
Compression mode : Lossy
Stream size : 69.0 MiB (6%)
Alignment : Split accross interleaves
Interleave, duration : 40 ms (1.00 video frame)
Interleave, preload duratio : 500 ms
Title : Audio

Скриншоты




[torrentc.info]_t_5468593.torrent
Торрент: Зарегистрирован ·  [ 2017-10-28 22:48 ] ·  11c8fe5d6a5f63723a91aa2b9773dd679054c425

11 KB

Статус: проверено
Скачан: 1 раз
Размер: 1.09 GB
Оценка: 
(Голосов: 0)
Сказали спасибо: 0  Спасибо
Похожие темы
[Профиль]    [ЛС]
Показать сообщения:    
Ответить на тему

Текущее время: Сегодня 22:20

Часовой пояс: GMT + 7



Вы не можете начинать темы
Вы не можете отвечать на сообщения
Вы не можете редактировать свои сообщения
Вы не можете удалять свои сообщения
Вы не можете голосовать в опросах
Вы не можете прикреплять файлы к сообщениям
Вы можете скачивать файлы