Вишневый сад (Игорь Ильинский, Зинаида Андреева) [2015, комедия, SATRip] Государственный академический Малый театр

Ответить на тему
Статистика раздачи [Обновить пиров]
Размер:  1.46 GB   |    Зарегистрирован:  10 месяцев 21 день   |    Скачан:  0 раз

Полного источника не было: Никогда

 
   
 
 
 
Автор Сообщение

torrentc.info

Создавать темы 28-Окт-2017 22:48

[Цитировать]

Вишневый сад (2 действия) Название театра: Государственный академический Малый театр.
Год выхода: 2015.
Жанр: комедия.
Продолжительность: 01:10:52 + 01:06:52 (02:17:44).
Режиссеры: народный артист СССР Игорь Ильинский, заслуженная артистка России Зинаида Андреева.
Действующие лица и исполнители:
Раневская - ародная артистка России Светлана Аманова,
Аня - Аполлинария Муравьева,
Варя - Алена Колесникова,
Гаев - народный артист РСФСР Валерий Бабятинский,
Лопахин - Алексей Фаддеев,
Трофимов - Степан Коршунов,
Симеонов-Пищик - народный артист России Сергей Еремеев,
Шарлотта Ивановна - заслуженная артистка РСФСР Людмила Щербинина,
Епиходов - Дмитрий Солодовник,
Дуняша - Ольга Абрамова,
Фирс - народный артист РСФСР Юрий Каюров,
Яша - Петр Жихарев,
Начальник станции - Андрей Манке.
Описание:
Постановка Игоря Ильинского возобновлена 9 февраля 2013 года. Спектакль о смене эпох, которая отзывается болью в каждом сердце. Уходит поколение Раневской и Гаева, старых русских дворян, сентиментальных и непрактичных. Они должны уступить дорогу деловому напору Лопахиных.
Дополнительная информация:
Страна: Россия .
Выпущено: Государственный академический Малый театр, Kultura.ru.
Автор: Антон Чехов.
Режиссер-постановщик спектакля: народный артист СССР Игорь Ильинский.
Режиссер: заслуженная артистка России Зинаида Андреева.
Художник-постановщик: Вадим Клотц.
Композитор: В. Мороз.
Художественный руководитель театра: народный артист СССР Юрий Соломин.
Премьера спектакля: 2 января 1982 года.
Спектакль возобновлен первый раз: 22 декабря 1988 года.
Спектакль возобновлен второй раз: 9 февраля 2013 года.

О спектакле.


Качество: SATRip
Формат файла: AVI
Видео: 640x368 (1.74:1), 25 fps, XviD MPEG-4 ~1383 kbps avg, 0.23 bit/pixel
Аудио: 44.100 kHz, MPEG Layer 3, 2 ch, ~128.00 kbps avg

Отчет Media Info

1-е действие:
General
Complete name : Vishnevyj.sad_Malyj.teatr.2016.XviD.SATRip.fenixclub\Vishnevyj.sad_Malyj.teatr.2016_1.dejstvie.avi
Format : AVI
Format/Info : Audio Video Interleave
File size : 771 MiB
Duration : 1h 10mn
Overall bit rate : 1 522 Kbps
Writing application : VirtualDubModRus 1.5.10.2 (build 2542/release)
Writing library : VirtualDub build 32842/release
Video
ID : 0
Format : MPEG-4 Visual
Format profile : Advanced Simple@L5
Format settings, BVOP : 2
Format settings, QPel : No
Format settings, GMC : No warppoints
Format settings, Matrix : Default (MPEG)
Codec ID : XVID
Codec ID/Hint : XviD
Duration : 1h 10mn
Bit rate : 1 384 Kbps
Width : 640 pixels
Height : 368 pixels
Display aspect ratio : 1.739
Frame rate : 25.000 fps
Color space : YUV
Chroma subsampling : 4:2:0
Bit depth : 8 bits
Scan type : Progressive
Compression mode : Lossy
Bits/(Pixel*Frame) : 0.235
Stream size : 701 MiB (91%)
Writing library : XviD 73
Audio
ID : 1
Format : MPEG Audio
Format version : Version 1
Format profile : Layer 3
Mode : Joint stereo
Mode extension : MS Stereo
Codec ID : 55
Codec ID/Hint : MP3
Duration : 1h 10mn
Bit rate mode : Constant
Bit rate : 128 Kbps
Channel(s) : 2 channels
Sampling rate : 44.1 KHz
Compression mode : Lossy
Stream size : 64.9 MiB (8%)
Alignment : Split accross interleaves
Interleave, duration : 40 ms (1.00 video frame)
Interleave, preload duratio : 500 ms
Writing library : LAME3.98.2
2-е действие:
General
Complete name : Vishnevyj.sad_Malyj.teatr.2016.XviD.SATRip.fenixclub\Vishnevyj.sad_Malyj.teatr.2016_2.dejstvie.avi
Format : AVI
Format/Info : Audio Video Interleave
File size : 728 MiB
Duration : 1h 6mn
Overall bit rate : 1 522 Kbps
Writing application : VirtualDubModRus 1.5.10.2 (build 2542/release)
Writing library : VirtualDub build 32842/release
Video
ID : 0
Format : MPEG-4 Visual
Format profile : Advanced Simple@L5
Format settings, BVOP : 2
Format settings, QPel : No
Format settings, GMC : No warppoints
Format settings, Matrix : Default (MPEG)
Codec ID : XVID
Codec ID/Hint : XviD
Duration : 1h 6mn
Bit rate : 1 384 Kbps
Width : 640 pixels
Height : 368 pixels
Display aspect ratio : 1.739
Frame rate : 25.000 fps
Color space : YUV
Chroma subsampling : 4:2:0
Bit depth : 8 bits
Scan type : Progressive
Compression mode : Lossy
Bits/(Pixel*Frame) : 0.235
Stream size : 662 MiB (91%)
Writing library : XviD 73
Audio
ID : 1
Format : MPEG Audio
Format version : Version 1
Format profile : Layer 3
Mode : Joint stereo
Mode extension : MS Stereo
Codec ID : 55
Codec ID/Hint : MP3
Duration : 1h 6mn
Bit rate mode : Constant
Bit rate : 128 Kbps
Channel(s) : 2 channels
Sampling rate : 44.1 KHz
Compression mode : Lossy
Stream size : 61.2 MiB (8%)
Alignment : Split accross interleaves
Interleave, duration : 40 ms (1.00 video frame)
Interleave, preload duratio : 500 ms
Writing library : LAME3.98.2

Скриншоты



[torrentc.info]_t_5468677.torrent
Торрент: Зарегистрирован ·  [ 2017-10-28 22:48 ] ·  b45f8ad12927ef6f8a005ef3d44bf643d160241b

15 KB

Статус: проверено
Скачан: 0 раз
Размер: 1.46 GB
Оценка: 
(Голосов: 0)
Сказали спасибо: 0  Спасибо
Похожие темы
[Профиль]    [ЛС]
Показать сообщения:    
Ответить на тему

Текущее время: Сегодня 14:09

Часовой пояс: GMT + 7



Вы не можете начинать темы
Вы не можете отвечать на сообщения
Вы не можете редактировать свои сообщения
Вы не можете удалять свои сообщения
Вы не можете голосовать в опросах
Вы не можете прикреплять файлы к сообщениям
Вы можете скачивать файлы