Ужин с дураком (Владимир Казанджан) [2010, французская комедия, WEB-DLRip] Театр-студия "Подиум" под руководством В. Казанджана, г. Димитровград

Ответить на тему
Статистика раздачи [Обновить пиров]
Размер:  2.18 GB   |    Зарегистрирован:  1 год 1 месяц   |    Скачан:  1 раз

Полного источника не было: 1 месяц 10 дней

 
   
 
 
 
Автор Сообщение

torrentc.info

Создавать темы 28-Окт-2017 22:48

[Цитировать]

Ужин с дураком Название театра: Театр-студия "Подиум" под руководством В. Казанджана, г. Димитровград.
Год выхода: 2010.
Жанр: французская комедия.
Продолжительность: 02:19:43.
Режиссер: Владимир Казанджан.
Действующие лица и исполнители:
Франсуа Пиньон - Сергей Шляконов,
Пьер Брошан, издатель - Сергей Борисов,
Жюст Леблан, писатель - Андрей Скворцов,
Люсьен Шеваль, друг Франсуа - Александр Сауэр,
Кристин Брошан, жена Пьера - Ирина Скворцова,
Марлен Сассёр - Лариса Сулименко,
Аршамбо - Роман Вишневецкий.
О спектакле:
Если имя автора комедии «Ужин с дураком» – Франсис Вебер – вряд ли что-то скажет неискушенной публике, то поставленные по его сценариям культовые французские кинокомедии с Пьером Ришаром в главных ролях видели и знают многие: «Высокий блондин в желтом ботинке», «Игрушка», «Папаши» и другие.
Комедия призвана не только повеселить публику, но и заставить задуматься о незыблемых истинах.

Дополнительная информация:
Страна: Россия .
Автор: Франсис Вебер.
Художник: Елена Казанджан.


Рип sharky.

Качество видео:...WEB-DLRip
Формат файла:.................AVI
Видео:..704x528 (1.33:1), 25 fps, DivX Codec 4.x ~2102 kbps avg, 0.23 bit/pixel
Аудио:..44.100 kHz, MPEG Layer 3, 2 ch, ~128.00 kbps avg

Отчет Media Info

General
Complete name : Uzhin.s.durakom_Teatr-studiya.Podium.2010.DivX.WEB-DLRip.fenixclub.avi
Format : AVI
Format/Info : Audio Video Interleave
Format profile : OpenDML
File size : 2.18 GiB
Duration : 2h 19mn
Overall bit rate : 2 237 Kbps
Writing application : VirtualDubMod 1.5.10.2 (build 2542/release)
Writing library : VirtualDubMod build 2542/release
Video
ID : 0
Format : MPEG-4 Visual
Format settings, BVOP : 1
Format settings, QPel : No
Format settings, GMC : No warppoints
Format settings, Matrix : Default (H.263)
Codec ID : DX50
Codec ID/Hint : DivX 5
Duration : 2h 19mn
Bit rate : 2 097 Kbps
Width : 704 pixels
Height : 528 pixels
Display aspect ratio : 4:3
Frame rate : 25.000 fps
Color space : YUV
Chroma subsampling : 4:2:0
Bit depth : 8 bits
Scan type : Progressive
Compression mode : Lossy
Bits/(Pixel*Frame) : 0.226
Stream size : 2.05 GiB (94%)
Writing library : DivX 3013
Audio
ID : 1
Format : MPEG Audio
Format version : Version 1
Format profile : Layer 3
Mode : Joint stereo
Mode extension : MS Stereo
Codec ID : 55
Codec ID/Hint : MP3
Duration : 2h 19mn
Bit rate mode : Constant
Bit rate : 128 Kbps
Channel(s) : 2 channels
Sampling rate : 44.1 KHz
Compression mode : Lossy
Stream size : 128 MiB (6%)
Alignment : Split accross interleaves
Interleave, duration : 40 ms (1.00 video frame)
Interleave, preload duratio : 500 ms.

Скриншоты




[torrentc.info]_t_5468858.torrent
Торрент: Зарегистрирован ·  [ 2017-10-28 22:48 ] ·  bb662e0c8fc0cb35902ecdd831745fe6fe8e0936

11 KB

Статус: проверено
Скачан: 1 раз
Размер: 2.18 GB
Оценка: 
(Голосов: 0)
Сказали спасибо: 0  Спасибо
Похожие темы
[Профиль]    [ЛС]
Показать сообщения:    
Ответить на тему

Текущее время: Сегодня 22:22

Часовой пояс: GMT + 7



Вы не можете начинать темы
Вы не можете отвечать на сообщения
Вы не можете редактировать свои сообщения
Вы не можете удалять свои сообщения
Вы не можете голосовать в опросах
Вы не можете прикреплять файлы к сообщениям
Вы можете скачивать файлы