День дурака (Александр Баранов) [2014, комедия, приключения, WEB-DLRip]

Ответить на тему
Статистика раздачи [Обновить пиров]
Размер:  498 MB   |    Зарегистрирован:  1 год   |    Скачан:  0 раз

Полного источника не было: Никогда

 
   
 
 
 
Автор Сообщение

torrentc.info

Создавать темы 23-Окт-2017 20:30

[Цитировать]

День дурака-«Мы отыграемся по полной»- Оригинальное Название: День дурака
Год Выпуска: 2014 г.
Cтрана: Россия
Жанр: комедия, приключения
Продолжительность: 01:30:15-Перевод: Не требуется [Оригинал]-Режиссер: Александр Баранов
В ролях: Алексей Весёлкин, Александр Лыков, Антонина Дивина, Александр Воробьёв, Светлана Чуйкина, Сергей Удовик, Сергей Беляев, Игорь Кистол, Антон Васильев, Дмитрий Белоцерковский-Описание:
Ванька работает швейцаром в гостинице. Он ненавидит ее обеспеченных постояльцев, но при этом мечтает пожить их роскошной жизнью. А пока вынужден жить в машине, купленной в кредит, так как из съемной квартиры его выгнали за неуплату. В этой и без того непростой ситуации на голову парня сваливается коллектор Сергей Сергеевич, который твердо решил выбить из Ваньки долг. Чтобы хоть как-то отсрочить расправу, Ванька выдает себя за сына богатого фермера, который с легкостью погасит кредит. Но по дороге на ферму попутчики поневоле попадают в аварию, которая оборачивается для Ваньки неожиданным спасением. Нечистый на руку мэр провинциального городка и вороватые сотрудники его администрации принимают московских гостей за представителей Следственного комитета. Вчерашнего швейцара ждет королевский прием и взятка в виде руки и сердца мэрской дочки… или скандальное разоблачение.
-Автор рипа: lokomotiv23-Источник: WEB-DL 720p
Качество: WEB-DLRip
Формат файла: MP4
Видео кодек: H.264
Аудио кодек: AAC
Видео: MPEG-4 AVC Video (H.264) / 480x208 / 640 kbps / 24.000 fps
Аудио: AAC, 2 channels, 48 kHz, 128 kbps
-

MediaInfo

General
Complete name                       : День дурака.2014.WEB-DLRip.mp4
Format                              : MPEG-4
Format profile                      : Base Media
Codec ID                            : isom
File size                           : 498 MiB
Duration                            : 1h 30mn
Overall bit rate mode               : Variable
Overall bit rate                    : 771 Kbps
Encoded date                        : UTC 2014-12-05 12:07:22
Tagged date                         : UTC 2014-12-05 12:07:22
Video
ID                                  : 1
Format                              : AVC
Format/Info                         : Advanced Video Codec
Format profile                      : Main@L3.0
Format settings, CABAC              : Yes
Format settings, ReFrames           : 3 frames
Codec ID                            : avc1
Codec ID/Info                       : Advanced Video Coding
Duration                            : 1h 30mn
Bit rate                            : 640 Kbps
Maximum bit rate                    : 2 091 Kbps
Width                               : 480 pixels
Height                              : 208 pixels
Display aspect ratio                : 2.35:1
Frame rate mode                     : Constant
Frame rate                          : 24.000 fps
Color space                         : YUV
Chroma subsampling                  : 4:2:0
Bit depth                           : 8 bits
Scan type                           : Progressive
Bits/(Pixel*Frame)                  : 0.267
Stream size                         : 413 MiB (83%)
Writing library                     : x264 core 130 r2273 b3065e6
Encoding settings                   : cabac=1 / ref=3 / deblock=1:-1:0 / analyse=0x1:0x131 / me=umh / subme=10 / psy=1 / psy_rd=1.00:0.20 / mixed_ref=1 / me_range=16 / chroma_me=1 / trellis=2 / 8x8dct=0 / cqm=0 / deadzone=21,11 / fast_pskip=0 / chroma_qp_offset=-3 / threads=6 / lookahead_threads=1 / sliced_threads=0 / nr=0 / decimate=0 / interlaced=0 / bluray_compat=0 / constrained_intra=0 / bframes=3 / b_pyramid=0 / b_adapt=2 / b_bias=0 / direct=3 / weightb=1 / open_gop=0 / weightp=2 / keyint=250 / keyint_min=23 / scenecut=40 / intra_refresh=0 / rc_lookahead=60 / rc=2pass / mbtree=1 / bitrate=640 / ratetol=1.0 / qcomp=0.60 / qpmin=0 / qpmax=69 / qpstep=4 / cplxblur=20.0 / qblur=0.5 / ip_ratio=1.40 / aq=1:1.00
Encoded date                        : UTC 2014-12-05 12:07:22
Tagged date                         : UTC 2014-12-05 12:07:53
Audio
ID                                  : 2
Format                              : AAC
Format/Info                         : Advanced Audio Codec
Format profile                      : LC
Codec ID                            : 40
Duration                            : 1h 30mn
Bit rate mode                       : Variable
Bit rate                            : 128 Kbps
Maximum bit rate                    : 153 Kbps
Channel(s)                          : 2 channels
Channel positions                   : Front: L R
Sampling rate                       : 48.0 KHz
Compression mode                    : Lossy
Delay relative to video             : 83ms
Stream size                         : 82.4 MiB (17%)
Encoded date                        : UTC 2014-12-05 12:07:47
Tagged date                         : UTC 2014-12-05 12:07:53
-

Скриншоты




[torrentc.info]_t_4983328.torrent
Торрент: Зарегистрирован ·  [ 2017-10-23 20:30 ] ·  4cff6d31e075333972d3073255724e9828740a3c

20 KB

Статус: проверено
Скачан: 0 раз
Размер: 498 MB
Оценка: 
(Голосов: 0)
Сказали спасибо: 0  Спасибо
Похожие темы
[Профиль]    [ЛС]
Показать сообщения:    
Ответить на тему

Текущее время: Сегодня 22:44

Часовой пояс: GMT + 7



Вы не можете начинать темы
Вы не можете отвечать на сообщения
Вы не можете редактировать свои сообщения
Вы не можете удалять свои сообщения
Вы не можете голосовать в опросах
Вы не можете прикреплять файлы к сообщениям
Вы можете скачивать файлы