(IDM, Downtempo, Ambient) Porn Sword Tobacco - Everything Is Music To The Ear - 2009, FLAC (tracks+.cue), lossless

Ответить на тему
Статистика раздачи [Обновить пиров]
Размер:  282 MB   |    Зарегистрирован:  7 месяцев 3 дня   |    Скачан:  0 раз

Полного источника не было: Никогда

 
   
 
 
 
Автор Сообщение

torrentc.info

Создавать темы 18-Окт-2017 22:55

[Цитировать]

Porn Sword Tobacco - Everything Is Music To The Ear

Жанр: IDM, Downtempo, Ambient
Год выхода диска: 2009
Производитель диска: Sweden
Аудио кодек: FLAC
Тип рипа: tracks+.cue
Битрейт аудио: lossless
Продолжительность: 00:50:40
Трэклист:
01. Welcome
02. En Ny Morgon
03. I Love Riding My Bicycle
04. Sjöbodarna Står Tomma Över Jul
05. Havet Är Ärligt
06. Spectrum Campfire
07. Thats Roadrageous!
08. The Lavalife
09. 2 Windows Down
10. Casual Claude
11. Den Kalla Handen
12. Cave 4b-50 Clicks Northwest
13. My Week In Zambia
14. Hästen Som Sprang När Och Vart Den Ville
15. From Plural To Singular
16. Goodbye
17. Unlisted hidden track
Доп. информация:

LOG EAC

Exact Audio Copy V0.99 prebeta 5 from 4. May 2009
EAC extraction logfile from 23. July 2009, 21:44
Porn Store Tobacco / Everything Is Music To The Ear
Used drive : ATAPI DVD A DH16AYH Adapter: 1 ID: 0
Read mode : Secure
Utilize accurate stream : Yes
Defeat audio cache : Yes
Make use of C2 pointers : No
Read offset correction : 6
Overread into Lead-In and Lead-Out : No
Fill up missing offset samples with silence : Yes
Delete leading and trailing silent blocks : No
Null samples used in CRC calculations : Yes
Used interface : Native Win32 interface for Win NT & 2000
Gap handling : Appended to previous track
Used output format : User Defined Encoder
Selected bitrate : 320 kBit/s
Quality : High
Add ID3 tag : No
Command line compressor : C:\Program Files\FLAC\flac.exe
Additional command line options : -V -8 -T "artist=%a" -T "title=%t" -T "album=%g" -T "date=%y" -T "tracknumber=%n" -T "genre=%m" %s
TOC of the extracted CD
Track | Start | Length | Start sector | End sector
---------------------------------------------------------
1 | 0:00.00 | 0:56.14 | 0 | 4213
2 | 0:56.14 | 4:27.37 | 4214 | 24275
3 | 5:23.51 | 4:47.57 | 24276 | 45857
4 | 10:11.33 | 1:15.71 | 45858 | 51553
5 | 11:27.29 | 4:02.17 | 51554 | 69720
6 | 15:29.46 | 2:50.60 | 69721 | 82530
7 | 18:20.31 | 0:41.42 | 82531 | 85647
8 | 19:01.73 | 5:01.07 | 85648 | 108229
9 | 24:03.05 | 1:26.61 | 108230 | 114740
10 | 25:29.66 | 5:15.12 | 114741 | 138377
11 | 30:45.03 | 0:41.56 | 138378 | 141508
12 | 31:26.59 | 5:12.03 | 141509 | 164911
13 | 36:38.62 | 1:18.50 | 164912 | 170811
14 | 37:57.37 | 4:12.24 | 170812 | 189735
15 | 42:09.61 | 3:41.59 | 189736 | 206369
16 | 45:51.45 | 1:22.68 | 206370 | 212587
17 | 47:14.38 | 3:25.37 | 212588 | 227999
Track 1
Filename C:\EACrips\Welcome.wav
Pre-gap length 0:00:02.00
Peak level 49.4 %
Track quality 99.5 %
Test CRC F05CA2FC
Copy CRC F05CA2FC
Track not present in AccurateRip database
Copy OK
Track 2
Filename C:\EACrips\En ny morgon.wav
Peak level 96.1 %
Track quality 99.4 %
Test CRC 4DF905F2
Copy CRC 4DF905F2
Track not present in AccurateRip database
Copy OK
Track 3
Filename C:\EACrips\I love riding my bicycle.wav
Peak level 96.2 %
Track quality 99.4 %
Test CRC 7D68BF87
Copy CRC 7D68BF87
Track not present in AccurateRip database
Copy OK
Track 4
Filename C:\EACrips\Sjobodarna star tomma over jul.wav
Peak level 96.1 %
Track quality 100.0 %
Test CRC 574FC3B1
Copy CRC 574FC3B1
Track not present in AccurateRip database
Copy OK
Track 5
Filename C:\EACrips\Havet ar arligt.wav
Peak level 96.2 %
Track quality 99.3 %
Test CRC 52A8DBA1
Copy CRC 52A8DBA1
Track not present in AccurateRip database
Copy OK
Track 6
Filename C:\EACrips\Spectrum campfire.wav
Peak level 96.1 %
Track quality 99.3 %
Test CRC 5D9F0369
Copy CRC 5D9F0369
Track not present in AccurateRip database
Copy OK
Track 7
Filename C:\EACrips\That's roadrageous!.wav
Pre-gap length 0:00:00.01
Peak level 78.0 %
Track quality 100.0 %
Test CRC 976D7304
Copy CRC 976D7304
Track not present in AccurateRip database
Copy OK
Track 8
Filename C:\EACrips\The lavalife.wav
Peak level 96.2 %
Track quality 100.0 %
Test CRC E56C0BB1
Copy CRC E56C0BB1
Track not present in AccurateRip database
Copy OK
Track 9
Filename C:\EACrips\2 windows down.wav
Peak level 71.2 %
Track quality 100.0 %
Test CRC 9215D6EE
Copy CRC 9215D6EE
Track not present in AccurateRip database
Copy OK
Track 10
Filename C:\EACrips\Casual Claude (birthday mix).wav
Pre-gap length 0:00:00.01
Peak level 96.6 %
Track quality 100.0 %
Test CRC D98F555A
Copy CRC D98F555A
Track not present in AccurateRip database
Copy OK
Track 11
Filename C:\EACrips\Den kalla handen.wav
Pre-gap length 0:00:00.01
Peak level 96.1 %
Track quality 100.0 %
Test CRC 3FDE0237
Copy CRC 3FDE0237
Track not present in AccurateRip database
Copy OK
Track 12
Filename C:\EACrips\Cave 4b-50 clicks northwest.wav
Pre-gap length 0:00:00.01
Peak level 96.2 %
Track quality 100.0 %
Test CRC F02CEFCC
Copy CRC F02CEFCC
Track not present in AccurateRip database
Copy OK
Track 13
Filename C:\EACrips\My week in Zambia.wav
Peak level 75.7 %
Track quality 99.8 %
Test CRC 043A8F51
Copy CRC 043A8F51
Track not present in AccurateRip database
Copy OK
Track 14
Filename C:\EACrips\Hasten som sprang nar och vart den ville.wav
Peak level 96.3 %
Track quality 100.0 %
Test CRC 6BD96BBB
Copy CRC 6BD96BBB
Track not present in AccurateRip database
Copy OK
Track 15
Filename C:\EACrips\From Plural to singular (finite edit).wav
Peak level 96.4 %
Track quality 100.0 %
Test CRC AFD122CE
Copy CRC AFD122CE
Track not present in AccurateRip database
Copy OK
Track 16
Filename C:\EACrips\Goodbye.wav
Peak level 64.1 %
Track quality 100.0 %
Test CRC EE66BCBB
Copy CRC EE66BCBB
Track not present in AccurateRip database
Copy OK
Track 17
Filename C:\EACrips\(Unlisted hidden track).wav
Peak level 96.2 %
Track quality 100.0 %
Test CRC 162FBD9F
Copy CRC 162FBD9F
Track not present in AccurateRip database
Copy OK
None of the tracks are present in the AccurateRip database
No errors occurred
End of status report
Рип делал не я. Добыто на "вате". ер Medfly70. Содержание не идентично раздаваемому на " вате", поскольку пришлось нумеровать треки самому, а также создавть нормальный куе с тегами.


[torrentc.info]_t_2355560.torrent
Торрент: Зарегистрирован ·  [ 2017-10-18 22:48 ] ·  18cbdbb44aa63b4d3c1d79dfbb4cb771f0c0bc1f

13 KB

Статус: проверено
Скачан: 0 раз
Размер: 282 MB
Оценка: 
(Голосов: 0)
Сказали спасибо: 0  Спасибо
Похожие темы
[Профиль]    [ЛС]
Показать сообщения:    
Ответить на тему

Текущее время: Сегодня 13:30

Часовой пояс: GMT + 7



Вы не можете начинать темы
Вы не можете отвечать на сообщения
Вы не можете редактировать свои сообщения
Вы не можете удалять свои сообщения
Вы не можете голосовать в опросах
Вы не можете прикреплять файлы к сообщениям
Вы можете скачивать файлы