(R&B, Hip-Hop, Pop) [CD] Fergie - Double Dutchess - 2017, FLAC (tracks+.cue), lossless

Ответить на тему
Статистика раздачи [Обновить пиров]
Размер:  365 MB   |    Зарегистрирован:  11 месяцев 2 дня   |    Скачан:  0 раз

Полного источника не было: Никогда

Личеров:  1  [  0 KB/s  ]   Подробная статистика скачивающих
 
   
 
 
 
Автор Сообщение

torrentc.info

Создавать темы 16-Окт-2017 22:43

[Цитировать]

Fergie / Double Dutchess
[img=right]https://www.israbox.one/uploads/posts/2017-09/15059...l1500_.jpg[/img]
Жанр: R&B, Hip-Hop, Pop
Носитель: CD
Страна-производитель диска (релиза): USA
Год издания: 2017
Издатель (лейбл): BMG
Номер по каталогу: 538322242
Страна исполнителя (группы): USA
Аудиокодек: FLAC (*.flac)
Тип рипа: tracks+.cue
Битрейт аудио: lossless
Продолжительность: 00:56:36
Источник (релизер): dalbot1980
Наличие сканов в содержимом раздачи: нет

Треклист:
01. Hungry (feat. Rick Ross)
02. Like It Ain't Nuttin'
03. You Already Know (feat. Nicki Minaj)
04. Just Like You
05. A Little Work
06. Life Goes On
07. M.I.L.F. $
08. Save It Til Morning
09. Enchanté (Carine) (feat. Axl Jack)
10. Tension
11. L.A.LOVE (la la) (feat. YG)
12. Love Is Blind
13. Love Is Pain

Лог создания рипа

Exact Audio Copy V1.3 from 2. September 2016
EAC extraction logfile from 12. October 2017, 7:24
Fergie / Double Dutchess
Used drive : TSSTcorpDVD-ROM SN-108BB Adapter: 1 ID: 0
Read mode : SecureUtilize accurate stream : YesDefeat audio cache : YesMake use of C2 pointers : No
Read offset correction : 6Overread into Lead-In and Lead-Out : NoFill up missing offset samples with silence : YesDelete leading and trailing silent blocks : NoNull samples used in CRC calculations : YesUsed interface : Native Win32 interface for Win NT & 2000Gap handling : Appended to previous track
Used output format : User Defined EncoderSelected bitrate : 1024 kBit/sQuality : HighAdd ID3 tag : NoCommand line compressor : C:\flac-1.3.2-win\win64\flac.exeAdditional command line options : -8 -e -V -T "ARTIST=%artist%" -T "TITLE=%title%" -T "ALBUM=%albumtitle%" -T "DATE=%year%" -T "TRACKNUMBER=%tracknr%" -T "GENRE=%genre%" -T "PERFORMER=%albuminterpret%" -T "COMPOSER=%composer%" %haslyrics%--tag-from-file=LYRICS="%lyricsfile%"%haslyrics% -T "ALBUMARTIST=%albumartist%" -T "DISCNUMBER=%cdnumber%" -T "TOTALDISCS=%totalcds%" -T "TOTALTRACKS=%numtracks%" -T "COMMENT=%comment%" %source% -o %dest%
TOC of the extracted CD
Track | Start | Length | Start sector | End sector --------------------------------------------------------- 1 | 0:00.00 | 3:23.67 | 0 | 15291 2 | 3:23.67 | 3:45.34 | 15292 | 32200 3 | 7:09.26 | 6:28.60 | 32201 | 61360 4 | 13:38.11 | 3:52.46 | 61361 | 78806 5 | 17:30.57 | 4:05.15 | 78807 | 97196 6 | 21:35.72 | 4:26.04 | 97197 | 117150 7 | 26:02.01 | 2:42.02 | 117151 | 129302 8 | 28:44.03 | 4:09.36 | 129303 | 148013 9 | 32:53.39 | 4:27.24 | 148014 | 168062 10 | 37:20.63 | 3:23.48 | 168063 | 183335 11 | 40:44.36 | 3:31.39 | 183336 | 199199 12 | 44:16.00 | 5:34.64 | 199200 | 224313 13 | 49:50.64 | 7:10.59 | 224314 | 256622
Track 1
Filename C:\Fergie - Double Dutchess (2017) [CD - FLAC] {BMG - 5832242}\01 - Hungry (Feat. Rick Ross).wav
Pre-gap length 0:00:02.00
Peak level 98.8 % Extraction speed 2.4 X Track quality 100.0 % Test CRC A57E8337 Copy CRC A57E8337 Track not present in AccurateRip database Copy OK
Track 2
Filename C:\Fergie - Double Dutchess (2017) [CD - FLAC] {BMG - 5832242}\02 - Like It Ain't Nuttin'.wav
Peak level 98.8 % Extraction speed 2.3 X Track quality 99.9 % Test CRC 6CDF4AFA Copy CRC 6CDF4AFA Track not present in AccurateRip database Copy OK
Track 3
Filename C:\Fergie - Double Dutchess (2017) [CD - FLAC] {BMG - 5832242}\03 - You Already Know (Feat. Nicki Minaj).wav
Peak level 98.8 % Extraction speed 3.4 X Track quality 100.0 % Test CRC DA0E9380 Copy CRC DA0E9380 Track not present in AccurateRip database Copy OK
Track 4
Filename C:\Fergie - Double Dutchess (2017) [CD - FLAC] {BMG - 5832242}\04 - Just Like You.wav
Peak level 98.8 % Extraction speed 3.4 X Track quality 100.0 % Test CRC 9A74859A Copy CRC 9A74859A Track not present in AccurateRip database Copy OK
Track 5
Filename C:\Fergie - Double Dutchess (2017) [CD - FLAC] {BMG - 5832242}\05 - A Little Work.wav
Peak level 98.7 % Extraction speed 3.0 X Track quality 100.0 % Test CRC 889A2BE7 Copy CRC 889A2BE7 Track not present in AccurateRip database Copy OK
Track 6
Filename C:\Fergie - Double Dutchess (2017) [CD - FLAC] {BMG - 5832242}\06 - Life Goes On.wav
Peak level 100.0 % Extraction speed 3.9 X Track quality 100.0 % Test CRC 35988532 Copy CRC 35988532 Track not present in AccurateRip database Copy OK
Track 7
Filename C:\Fergie - Double Dutchess (2017) [CD - FLAC] {BMG - 5832242}\07 - M.I.L.F. $.wav
Peak level 98.8 % Extraction speed 2.9 X Track quality 99.9 % Test CRC A788084E Copy CRC A788084E Track not present in AccurateRip database Copy OK
Track 8
Filename C:\Fergie - Double Dutchess (2017) [CD - FLAC] {BMG - 5832242}\08 - Save It Til Morning.wav
Peak level 98.8 % Extraction speed 4.2 X Track quality 100.0 % Test CRC 8EEDADC7 Copy CRC 8EEDADC7 Track not present in AccurateRip database Copy OK
Track 9
Filename C:\Fergie - Double Dutchess (2017) [CD - FLAC] {BMG - 5832242}\09 - Enchanté (Carine) (Feat. Axl Jack).wav
Peak level 98.4 % Extraction speed 4.4 X Track quality 100.0 % Test CRC D9CA3260 Copy CRC D9CA3260 Track not present in AccurateRip database Copy OK
Track 10
Filename C:\Fergie - Double Dutchess (2017) [CD - FLAC] {BMG - 5832242}\10 - Tension.wav
Peak level 98.4 % Extraction speed 4.4 X Track quality 100.0 % Test CRC 1B9838D9 Copy CRC 1B9838D9 Track not present in AccurateRip database Copy OK
Track 11
Filename C:\Fergie - Double Dutchess (2017) [CD - FLAC] {BMG - 5832242}\11 - L.A. Love (La La) (Feat. YG).wav
Peak level 98.8 % Extraction speed 4.6 X Track quality 100.0 % Test CRC A1580924 Copy CRC A1580924 Track not present in AccurateRip database Copy OK
Track 12
Filename C:\Fergie - Double Dutchess (2017) [CD - FLAC] {BMG - 5832242}\12 - Love Is Blind.wav
Peak level 98.7 % Extraction speed 5.0 X Track quality 100.0 % Test CRC 12DC18BC Copy CRC 12DC18BC Track not present in AccurateRip database Copy OK
Track 13
Filename C:\Fergie - Double Dutchess (2017) [CD - FLAC] {BMG - 5832242}\13 - Love Is Pain.wav
Peak level 98.8 % Extraction speed 5.4 X Track quality 100.0 % Test CRC 02359646 Copy CRC 02359646 Track not present in AccurateRip database Copy OK
None of the tracks are present in the AccurateRip database
No errors occurred
End of status report
---- CUETools DB Plugin V2.1.6
[CTDB TOCID: b4Ahb5NGhcS0d2TYMwDq4mdY5F0-] foundSubmit result: b4Ahb5NGhcS0d2TYMwDq4mdY5F0- has been confirmedTrack | CTDB Status 1 | (20/20) Accurately ripped 2 | (20/20) Accurately ripped 3 | (20/20) Accurately ripped 4 | (20/20) Accurately ripped 5 | (20/20) Accurately ripped 6 | (20/20) Accurately ripped 7 | (20/20) Accurately ripped 8 | (20/20) Accurately ripped 9 | (20/20) Accurately ripped 10 | (20/20) Accurately ripped 11 | (20/20) Accurately ripped 12 | (20/20) Accurately ripped 13 | (20/20) Accurately ripped
==== Log checksum F9CBFC75C2F2A4B798DF6F54A6878DFB48918ADA18213266FE52CF4CC942E694 ====

Содержание индексной карты (.CUE)

REM GENRE PopREM DATE 2017REM DISCID B10D5D0DREM COMMENT "ExactAudioCopy v1.3"PERFORMER "Fergie"TITLE "Double Dutchess"REM COMPOSER ""FILE "01 - Hungry (Feat. Rick Ross).wav" WAVE TRACK 01 AUDIO TITLE "Hungry (Feat. Rick Ross)" PERFORMER "Fergie" REM COMPOSER "" ISRC QMRSZ1702049 FLAGS DCP INDEX 01 00:00:00FILE "02 - Like It Ain't Nuttin'.wav" WAVE TRACK 02 AUDIO TITLE "Like It Ain't Nuttin'" PERFORMER "Fergie" REM COMPOSER "" ISRC QMRSZ1702050 FLAGS DCP INDEX 01 00:00:00FILE "03 - You Already Know (Feat. Nicki Minaj).wav" WAVE TRACK 03 AUDIO TITLE "You Already Know (Feat. Nicki Minaj)" PERFORMER "Fergie" REM COMPOSER "" ISRC QMRSZ1702051 FLAGS DCP INDEX 01 00:00:00FILE "04 - Just Like You.wav" WAVE TRACK 04 AUDIO TITLE "Just Like You" PERFORMER "Fergie" REM COMPOSER "" ISRC QMRSZ1702052 FLAGS DCP INDEX 01 00:00:00FILE "05 - A Little Work.wav" WAVE TRACK 05 AUDIO TITLE "A Little Work" PERFORMER "Fergie" REM COMPOSER "" ISRC QMRSZ1702053 FLAGS DCP INDEX 01 00:00:00FILE "06 - Life Goes On.wav" WAVE TRACK 06 AUDIO TITLE "Life Goes On" PERFORMER "Fergie" REM COMPOSER "" ISRC USUM71614681 FLAGS DCP INDEX 01 00:00:00FILE "07 - M.I.L.F. $.wav" WAVE TRACK 07 AUDIO TITLE "M.I.L.F. $" PERFORMER "Fergie" REM COMPOSER "" ISRC USUM71614681 FLAGS DCP INDEX 01 00:00:00FILE "08 - Save It Til Morning.wav" WAVE TRACK 08 AUDIO TITLE "Save It Til Morning" PERFORMER "Fergie" REM COMPOSER "" ISRC USUM71604730 FLAGS DCP INDEX 01 00:00:00FILE "09 - Enchantй (Carine) (Feat. Axl Jack).wav" WAVE TRACK 09 AUDIO TITLE "Enchantй (Carine) (Feat. Axl Jack)" PERFORMER "Fergie" REM COMPOSER "" ISRC QMRSZ1702057 FLAGS DCP INDEX 01 00:00:00FILE "10 - Tension.wav" WAVE TRACK 10 AUDIO TITLE "Tension" PERFORMER "Fergie" REM COMPOSER "" ISRC QMRSZ1702058 FLAGS DCP INDEX 01 00:00:00FILE "11 - L.A. Love (La La) (Feat. YG).wav" WAVE TRACK 11 AUDIO TITLE "L.A. Love (La La) (Feat. YG)" PERFORMER "Fergie" REM COMPOSER "" ISRC USUM71414575 FLAGS DCP INDEX 01 00:00:00FILE "12 - Love Is Blind.wav" WAVE TRACK 12 AUDIO TITLE "Love Is Blind" PERFORMER "Fergie" REM COMPOSER "" ISRC QMRSZ1702060 FLAGS DCP INDEX 01 00:00:00FILE "13 - Love Is Pain.wav" WAVE TRACK 13 AUDIO TITLE "Love Is Pain" PERFORMER "Fergie" REM COMPOSER "" ISRC QMRSZ1702061 FLAGS DCP INDEX 01 00:00:00


[torrentc.info]_t_5465149.torrent
Торрент: Зарегистрирован ·  [ 2017-10-16 22:42 ] ·  87e1a29b3243b5204f96f468b007861453b10ed6

16 KB

Статус: проверено
Скачан: 0 раз
Размер: 365 MB
Оценка: 
(Голосов: 0)
Сказали спасибо: 0  Спасибо
[Профиль]    [ЛС]
Показать сообщения:    
Ответить на тему

Текущее время: Сегодня 12:45

Часовой пояс: GMT + 7



Вы не можете начинать темы
Вы не можете отвечать на сообщения
Вы не можете редактировать свои сообщения
Вы не можете удалять свои сообщения
Вы не можете голосовать в опросах
Вы не можете прикреплять файлы к сообщениям
Вы можете скачивать файлы