(Smooth-Jazz/Pop Jazz) [CD] Bria Skonberg - With A Twist - 2017, FLAC (image+.cue), lossless

Ответить на тему
Статистика раздачи [Обновить пиров]
Размер:  317 MB   |    Зарегистрирован:  2 месяца 7 дней   |    Скачан:  1 раз

Полного источника не было: 1 месяц 4 дня

 
   
 
 
 
Автор Сообщение

torrentc.info

Создавать темы 11-Окт-2017 01:14

[Цитировать]

Bria Skonberg / With A Twist
Жанр: Smooth-Jazz/Pop Jazz
Носитель: CD
Страна-производитель диска (релиза): Russia
Год издания: 2017
Издатель (лейбл): Time Blues
Аудиокодек: FLAC (*.flac)
Тип рипа: image+.cue
Битрейт аудио: lossless
Продолжительность: 50'23''
Источник (релизер): RedHotBlues
Наличие сканов в содержимом раздачи: да
Треклист:
CD: Bria Skonberg - With A Twist
01. My Baby Just Cares For Me [0:03:06.66]
02. Sway [0:03:15.42]
03. Alright, Okay, You Win [0:03:19.64]
04. Cocktails For Two (Quintet Version) [0:03:21.49]
05. Whatever Lola Wants [0:03:00.62]
06. Dance Me To The End Of Love [0:05:36.28]
07. It's Oh So Quiet [0:04:58.35]
08. How I Know [0:04:10.68]
09. High Hat, Trumpet, And Rhythm [0:03:19.00]
10. Back In Your Own Back Yard [0:04:36.53]
11. Same Kind Of Crazy [0:03:52.72]
12. Thinking Out Loud [0:04:46.71]
13. Time To Go [0:02:55.24]

Лог создания рипа

Exact Audio Copy V1.3 from 2. September 2016
Отчёт EAC об извлечении, выполненном 4. октября 2017, 0:21
Bria Skonberg / With A Twist
Дисковод: ASUS DRW-24B3ST Adapter: 1 ID: 0
Режим чтения : ДостоверностьИспользование точного потока : ДаОтключение кэша аудио : ДаИспользование указателей C2 : Нет
Коррекция смещения при чтении : 6Способность читать области Lead-in и Lead-out : НетЗаполнение пропущенных сэмплов тишиной : ДаУдаление блоков с тишиной в начале и конце : НетПри вычислениях CRC использовались нулевые сэмплы : ДаИнтерфейс : Встроенный Win32-интерфейс для Win NT/2000
Выходной формат : Пользовательский кодировщикВыбранный битрейт : 768 kBit/sКачество : ВысокийДобавление ID3-тега : НетУтилита сжатия : C:\Program Files (x86)\Exact Audio Copy\FLAC\FLAC.EXEДополнительные параметры : -6 -V -T "ARTIST=%artist%" -T "TITLE=%title%" -T "ALBUM=%albumtitle%" -T "DATE=%year%" -T "TRACKNUMBER=%tracknr%" -T "GENRE=%genre%" -T "COMMENT=%comment%" -T "BAND=%albuminterpret%" -T "ALBUMARTIST=%albuminterpret%" -T "COMPOSER=%composer%" %haslyrics%--tag-from-file=LYRICS="%lyricsfile%"%haslyrics% -T "DISCNUMBER=%cdnumber%" -T "TOTALDISCS=%totalcds%" -T "TOTALTRACKS=%numtracks%" %hascover%--picture="%coverfile%"%hascover% %source% -o %dest%
TOC извлечённого CD
Трек | Старт | Длительность | Начальный сектор | Конечный сектор --------------------------------------------------------------------- 1 | 0:00.00 | 3:06.66 | 0 | 14015 2 | 3:06.66 | 3:15.42 | 14016 | 28682 3 | 6:22.33 | 3:19.64 | 28683 | 43671 4 | 9:42.22 | 3:21.49 | 43672 | 58795 5 | 13:03.71 | 3:00.62 | 58796 | 72357 6 | 16:04.58 | 5:36.28 | 72358 | 97585 7 | 21:41.11 | 4:58.35 | 97586 | 119970 8 | 26:39.46 | 4:10.68 | 119971 | 138788 9 | 30:50.39 | 3:19.00 | 138789 | 153713 10 | 34:09.39 | 4:36.53 | 153714 | 174466 11 | 38:46.17 | 3:52.72 | 174467 | 191938 12 | 42:39.14 | 4:46.71 | 191939 | 213459 13 | 47:26.10 | 2:55.24 | 213460 | 226608
Характеристики диапазона извлечения и сообщения об ошибках
Выбранный диапазон
Имя файла C:\Users\PENTIUM\Desktop\Bria Skonberg - With A Twist 2017 50'23''\Bria Skonberg - With A Twist.wav
Пиковый уровень 99.8 % Скорость извлечения 8.6 X Качество диапазона 100.0 % CRC теста 3A0F37B9 CRC копии 3A0F37B9 Копирование... OK
Ошибок не произошло
Конец отчёта
---- CUETools DB Plugin V2.1.6
[CTDB TOCID: Ikl3nMLkuosOl0ip_9rqSi_M_zA-] foundSubmit result: Ikl3nMLkuosOl0ip_9rqSi_M_zA- has been confirmedTrack | CTDB Status 1 | (13/13) Accurately ripped 2 | (13/13) Accurately ripped 3 | (13/13) Accurately ripped 4 | (13/13) Accurately ripped 5 | (13/13) Accurately ripped 6 | (13/13) Accurately ripped 7 | (13/13) Accurately ripped 8 | (13/13) Accurately ripped 9 | (13/13) Accurately ripped 10 | (13/13) Accurately ripped 11 | (13/13) Accurately ripped 12 | (13/13) Accurately ripped 13 | (13/13) Accurately ripped
==== Контрольная сумма отчёта E92520F8EA81EFA19E9311AC866EBB6C67A4B64101169240C1958AC462C309A6 ====

Содержание индексной карты (.CUE)

REM GENRE JazzREM DATE 2017REM DISCID B60BCD0DREM COMMENT "ExactAudioCopy v1.3"PERFORMER "Bria Skonberg"TITLE "With A Twist"REM COMPOSER ""FILE "Bria Skonberg - With A Twist.flac" WAVE TRACK 01 AUDIO TITLE "My Baby Just Cares For Me" PERFORMER "Bria Skonberg" REM COMPOSER "" INDEX 01 00:00:00 TRACK 02 AUDIO TITLE "Sway" PERFORMER "Bria Skonberg" REM COMPOSER "" INDEX 01 03:06:66 TRACK 03 AUDIO TITLE "Alright, Okay, You Win" PERFORMER "Bria Skonberg" REM COMPOSER "" INDEX 01 06:22:33 TRACK 04 AUDIO TITLE "Cocktails For Two (Quintet Version)" PERFORMER "Bria Skonberg" REM COMPOSER "" INDEX 01 09:42:22 TRACK 05 AUDIO TITLE "Whatever Lola Wants" PERFORMER "Bria Skonberg" REM COMPOSER "" INDEX 01 13:03:71 TRACK 06 AUDIO TITLE "Dance Me To The End Of Love" PERFORMER "Bria Skonberg" REM COMPOSER "" INDEX 01 16:04:58 TRACK 07 AUDIO TITLE "It's Oh So Quiet" PERFORMER "Bria Skonberg" REM COMPOSER "" INDEX 01 21:41:11 TRACK 08 AUDIO TITLE "How I Know" PERFORMER "Bria Skonberg" REM COMPOSER "" INDEX 01 26:39:46 TRACK 09 AUDIO TITLE "High Hat, Trumpet, And Rhythm" PERFORMER "Bria Skonberg" REM COMPOSER "" INDEX 01 30:50:39 TRACK 10 AUDIO TITLE "Back In Your Own Back Yard" PERFORMER "Bria Skonberg" REM COMPOSER "" INDEX 01 34:09:39 TRACK 11 AUDIO TITLE "Same Kind Of Crazy" PERFORMER "Bria Skonberg" REM COMPOSER "" INDEX 01 38:46:17 TRACK 12 AUDIO TITLE "Thinking Out Loud" PERFORMER "Bria Skonberg" REM COMPOSER "" INDEX 01 42:39:14 TRACK 13 AUDIO TITLE "Time To Go" PERFORMER "Bria Skonberg" REM COMPOSER "" INDEX 01 47:26:10

Лог проверки качества

-----------------------
DON'T MODIFY THIS FILE
-----------------------
PERFORMER: auCDtect Task Manager, ver. 1.6.0 RC1 build 1.6.0.1Copyright (c) 2008-2010 y-soft. All rights reservedhttp://y-soft.org
ANALYZER: auCDtect: CD records authenticity detector, version 0.8.2Copyright (c) 2004 Oleg Berngardt. All rights reserved.Copyright (c) 2004 Alexander Djourik. All rights reserved.
FILE: Bria Skonberg - With A Twist.flac Size: 298194611 Hash: 9FFD81C320AFE865FDD045E37884AFB4 Accuracy: -m0 Conclusion: CDDA 100% Signature: D48E067ED734870A750533F94D15A90F5D66DFB3

[torrentc.info]_t_5462133.torrent
Торрент: Зарегистрирован ·  [ 2017-10-11 01:12 ] ·  fb9478790250764b01582dc13f73867d2016a5a1

13 KB

Статус: проверено
Скачан: 1 раз
Размер: 317 MB
Оценка: 
(Голосов: 0)
Сказали спасибо: 0  Спасибо
Похожие темы
[Профиль]    [ЛС]
Показать сообщения:    
Ответить на тему

Текущее время: Сегодня 13:56

Часовой пояс: GMT + 7



Вы не можете начинать темы
Вы не можете отвечать на сообщения
Вы не можете редактировать свои сообщения
Вы не можете удалять свои сообщения
Вы не можете голосовать в опросах
Вы не можете прикреплять файлы к сообщениям
Вы можете скачивать файлы