(Modern Classical/Trip Hop/Ambient) Chandeen - Bikes And Pyramids - 2002, FLAC (image+.cue), lossless

Ответить на тему
Статистика раздачи [Обновить пиров]
Размер:  381 MB   |    Зарегистрирован:  8 месяцев 18 дней   |    Скачан:  0 раз
Сидеров:  1  [  0 KB/s  ]   Подробная статистика скачивающих
 
   
 
 
 
Автор Сообщение

torrentc.info

Создавать темы 04-Окт-2017 13:05

[Цитировать]

Chandeen - 2002 - Bikes And Pyramids
Жанр: Modern Classical/Trip Hop/Ambient
Год выхода диска: 2002
Производитель диска: Germany
Аудио кодек: FLAC
Тип рипа: image+.cue
Битрейт аудио: lossless
Продолжительность: 00:59:10
Трэклист:
01. My World Depends On You (4:18)
02. Pink (4:48)
03. Days In Time (6:14)
04. A Silent Love (Part I) (5:06)
05. You Love Him (3:56)
06. Walking (6:26)
07. Heute Nacht (5:01)
08. One Way Love (3:11)
09. Apples And Oranges (3:05)
10. Smooth Man's Melody (6:14)
11. Lucky Life (Part II) (5:40)
12. The Spacerider Legend (4:42)

Exact Audio Copy log

Exact Audio Copy V0.99 prebeta 4 from 23. January 2008
EAC extraction logfile from 13. September 2009, 0:39
Chandeen / Bikes And Pyramids
Used drive : HL-DT-STDVD-RAM GSA-H55N Adapter: 4 ID: 0
Read mode : Secure
Utilize accurate stream : Yes
Defeat audio cache : Yes
Make use of C2 pointers : No
Read offset correction : 102
Overread into Lead-In and Lead-Out : No
Fill up missing offset samples with silence : Yes
Delete leading and trailing silent blocks : No
Null samples used in CRC calculations : Yes
Used interface : Installed external ASPI interface
Used output format : User Defined Encoder
Selected bitrate : 1024 kBit/s
Quality : High
Add ID3 tag : No
Command line compressor : C:\Program Files\Exact Audio Copy\FLAC\FLAC.EXE
Additional command line options : -6 -V -T "ARTIST=%a" -T "TITLE=%t" -T "ALBUM=%g" -T "DATE=%y" -T "TRACKNUMBER=%n" -T "GENRE=%m" -T "COMMENT=%e" %s -o %d
TOC of the extracted CD
Track | Start | Length | Start sector | End sector
---------------------------------------------------------
1 | 0:00.00 | 4:21.00 | 0 | 19574
2 | 4:21.00 | 4:51.07 | 19575 | 41406
3 | 9:12.07 | 6:16.61 | 41407 | 69667
4 | 15:28.68 | 5:07.12 | 69668 | 92704
5 | 20:36.05 | 3:58.65 | 92705 | 110619
6 | 24:34.70 | 6:28.52 | 110620 | 139771
7 | 31:03.47 | 5:03.14 | 139772 | 162510
8 | 36:06.61 | 3:14.34 | 162511 | 177094
9 | 39:21.20 | 3:08.67 | 177095 | 191261
10 | 42:30.12 | 6:15.16 | 191262 | 219402
11 | 48:45.28 | 5:41.61 | 219403 | 245038
12 | 54:27.14 | 4:43.29 | 245039 | 266292
Range status and errors
Selected range
Filename I:\xxxxxxx\Chandeen - Bikes And Pyramids.wav
Peak level 100.0 %
Range quality 100.0 %
Copy CRC 36B978CE
Copy OK
No errors occurred
End of status report

Audiocheker log

AUDIOCHECKER v1.2 - by Dester - opdester@freemail.hu
~~~~~~~~~~~~~~~~~
1 -===- G:\@Chandeen\Chandeen - 2002 - Bikes And Pyramids (FLAC)\Chandeen - Bikes And Pyramids.flac
Extracted successfully
Conclusion: This track looks like CDDA with probability 99%


[torrentc.info]_t_2203472.torrent
Торрент: Зарегистрирован ·  [ 2017-10-04 13:00 ] ·  70f5f6b188ea01191738c1e3d56bb57ffc239941

16 KB

Статус: проверено
Скачан: 0 раз
Размер: 381 MB
Оценка: 
(Голосов: 0)
Сказали спасибо: 0  Спасибо
Похожие темы
[Профиль]    [ЛС]
Показать сообщения:    
Ответить на тему

Текущее время: Сегодня 09:56

Часовой пояс: GMT + 7



Вы не можете начинать темы
Вы не можете отвечать на сообщения
Вы не можете редактировать свои сообщения
Вы не можете удалять свои сообщения
Вы не можете голосовать в опросах
Вы не можете прикреплять файлы к сообщениям
Вы можете скачивать файлы