(Darkwave / Minimal / Coldwave) Avoid Catoblépone (Avoid Catoblepone) - 2 CD (1998-2001), FLAC (image+.cue), lossless

Ответить на тему
Статистика раздачи [Обновить пиров]
Размер:  1.06 GB   |    Зарегистрирован:  10 месяцев 11 дней   |    Скачан:  0 раз

Полного источника не было: Никогда

Личеров:  1  [  0 KB/s  ]   Подробная статистика скачивающих
 
   
 
 
 
Автор Сообщение

torrentc.info

Создавать темы 04-Окт-2017 13:05

[Цитировать]

-Avoid Catoblépone-- -Жанр: Darkwave / Minimal / Coldwave
Страна: France (Saint-Nazaire, Pays de la Loire)
Аудиокодек: FLAC (*.flac)
Тип рипа: image+.cue
Битрейт аудио: lossless
Продолжительность: 01:56:54
Наличие сканов в содержимом раздачи: да
--Состав:
Nadège - vocals.
Sébastien - guitar.
Stéphane - bass.
-- -

1998 - Musiques De Chambre Froide

Издатель (лейбл): Self-Released
Номер по каталогу: Avoid 001
Продолжительность: 00:59:50
Источник (релизер): свой рип
Трек-лист:
01. Heute. (04:18)
02. Clash. (04:15)
03. Prisonnier. (03:53)
04. End Never Ends. (04:48)
05. Little Worker. (05:45)
06. Vertigineuse. (07:04)
07. Humiliation. (04:53)
08. Les Tribulations D'un Soldat En Solde. (24:54)

Лог создания рипа

Exact Audio Copy V1.1 from 23. June 2015
EAC extraction logfile from 23. August 2017, 23:44
Avoid Catoblépone / Musiques De Chambre Froide
Used drive : PIONEER DVD-RW DVR-111D Adapter: 1 ID: 0
Read mode : SecureUtilize accurate stream : YesDefeat audio cache : YesMake use of C2 pointers : No
Read offset correction : 48Overread into Lead-In and Lead-Out : NoFill up missing offset samples with silence : YesDelete leading and trailing silent blocks : NoNull samples used in CRC calculations : YesUsed interface : Native Win32 interface for Win NT & 2000
Used output format : User Defined EncoderSelected bitrate : 1024 kBit/sQuality : HighAdd ID3 tag : NoCommand line compressor : D:\Flac\flac.exeAdditional command line options : -V -8 -T "Date=%year%" -T "Genre=%genre%" %source%
TOC of the extracted CD
Track | Start | Length | Start sector | End sector --------------------------------------------------------- 1 | 0:00.00 | 4:17.49 | 0 | 19323 2 | 4:17.49 | 4:15.09 | 19324 | 38457 3 | 8:32.58 | 3:53.03 | 38458 | 55935 4 | 12:25.61 | 4:47.42 | 55936 | 77502 5 | 17:13.28 | 5:45.03 | 77503 | 103380 6 | 22:58.31 | 7:03.47 | 103381 | 135152 7 | 30:02.03 | 4:53.37 | 135153 | 157164 8 | 34:55.40 | 24:54.00 | 157165 | 269214
Range status and errors
Selected range
Filename D:\Rips from Dаrkmind\Avoid Catoblépone - Musiques De Chambre Froide.wav
Peak level 100.0 % Extraction speed 6.8 X Range quality 100.0 % Test CRC 9B87F44F Copy CRC 9B87F44F Copy OK
No errors occurred
AccurateRip summary
Track 1 accurately ripped (confidence 1) [F0A1D92C] (AR v2)Track 2 accurately ripped (confidence 1) [4EB96E3B] (AR v2)Track 3 accurately ripped (confidence 1) [27764E33] (AR v2)Track 4 accurately ripped (confidence 1) [69730DCB] (AR v2)Track 5 accurately ripped (confidence 1) [1F14F0F2] (AR v2)Track 6 accurately ripped (confidence 1) [763302AC] (AR v2)Track 7 accurately ripped (confidence 1) [02B4AA06] (AR v2)Track 8 accurately ripped (confidence 1) [F3AC435B] (AR v2)
All tracks accurately ripped
End of status report
---- CUETools DB Plugin V2.1.6
[CTDB TOCID: uObBnlaQFHXvGcnk9rFySiWTQNk-] foundSubmit result: already submittedTrack | CTDB Status 1 | (1/1) Accurately ripped 2 | (1/1) Accurately ripped 3 | (1/1) Accurately ripped 4 | (1/1) Accurately ripped 5 | (1/1) Accurately ripped 6 | (1/1) Accurately ripped 7 | (1/1) Accurately ripped 8 | (1/1) Accurately ripped
==== Log checksum 861EF3A4018086ED7898F7502D762F95BED0213BA021383CCA55D1D3D7354087 ====

Лог проверки качества

-----------------------
DON'T MODIFY THIS FILE
-----------------------
PERFORMER: auCDtect Task Manager, ver. 1.6.0 RC1 build 1.6.0.1Copyright (c) 2008-2010 y-soft. All rights reservedhttp://y-soft.org
ANALYZER: auCDtect: CD records authenticity detector, version 0.8.2Copyright (c) 2004 Oleg Berngardt. All rights reserved.Copyright (c) 2004 Alexander Djourik. All rights reserved.
FILE: Avoid Catoblépone - Musiques De Chambre Froide.flac Size: 353671889 Hash: F882880E66769963510ADE13915380F6 Accuracy: -m0 Conclusion: CDDA 100% Signature: E2CA9D7D2503B6B9E1289D1B8CF7DBD16CDFAA51
-

Доп. информация

Track 8 contains a hidden track, starting at 19:58.

2001 - Décharné De L'âme

Издатель (лейбл): Self-Released
Номер по каталогу: Avoid002
Продолжительность: 00:57:04
Источник (релизер): свой рип
Трек-лист:
01. Cérémonie. (04:04)
02. Décharné. (07:54)
03. Complainte. (04:22)
04. Lolabordel. (04:31)
05. Litanie. (03:20)
06. Balancé. (07:23)
07. Soldats En Solde. (05:19)
08. Berceuse. (05:50)
09. Chimère. (05:54)
10. Malheur. (06:11)
11. Untitled. (Hidden Track) (02:16)

Лог создания рипа

Exact Audio Copy V1.1 from 23. June 2015
EAC extraction logfile from 24. August 2017, 0:09
Avoid Catoblépone / Décharné De L'âme
Used drive : PIONEER DVD-RW DVR-111D Adapter: 1 ID: 0
Read mode : SecureUtilize accurate stream : YesDefeat audio cache : YesMake use of C2 pointers : No
Read offset correction : 48Overread into Lead-In and Lead-Out : NoFill up missing offset samples with silence : YesDelete leading and trailing silent blocks : NoNull samples used in CRC calculations : YesUsed interface : Native Win32 interface for Win NT & 2000
Used output format : User Defined EncoderSelected bitrate : 1024 kBit/sQuality : HighAdd ID3 tag : NoCommand line compressor : D:\Flac\flac.exeAdditional command line options : -V -8 -T "Date=%year%" -T "Genre=%genre%" %source%
TOC of the extracted CD
Track | Start | Length | Start sector | End sector --------------------------------------------------------- 1 | 0:00.00 | 4:03.65 | 0 | 18289 2 | 4:03.65 | 7:54.14 | 18290 | 53853 3 | 11:58.04 | 4:22.15 | 53854 | 73518 4 | 16:20.19 | 4:30.60 | 73519 | 93828 5 | 20:51.04 | 3:19.56 | 93829 | 108809 6 | 24:10.60 | 7:23.11 | 108810 | 142045 7 | 31:33.71 | 5:19.04 | 142046 | 165974 8 | 36:53.00 | 5:49.55 | 165975 | 192204 9 | 42:42.55 | 5:54.29 | 192205 | 218783 10 | 48:37.09 | 6:10.67 | 218784 | 246600 11 | 54:48.01 | 2:15.48 | 246601 | 256773 12 | 59:35.49 | 8:18.42 | 268174 | 305565
Range status and errors
Selected range
Filename D:\Rips from Dаrkmind\Avoid Catoblépone - Décharné De L'âme.wav
Peak level 99.4 % Extraction speed 6.8 X Range quality 100.0 % Test CRC 2465436C Copy CRC 2465436C Copy OK
No errors occurred
AccurateRip summary
Track 1 accurately ripped (confidence 1) [E73B5B78] (AR v2)Track 2 accurately ripped (confidence 1) [D9800925] (AR v2)Track 3 accurately ripped (confidence 1) [BEBB2313] (AR v2)Track 4 accurately ripped (confidence 1) [1C134BAE] (AR v2)Track 5 accurately ripped (confidence 1) [3175337A] (AR v2)Track 6 accurately ripped (confidence 1) [42400BDA] (AR v2)Track 7 accurately ripped (confidence 1) [F2C973EB] (AR v2)Track 8 accurately ripped (confidence 1) [406BEDCA] (AR v2)Track 9 accurately ripped (confidence 1) [9ABF608A] (AR v2)Track 10 accurately ripped (confidence 1) [3BB70F81] (AR v2)Track 11 accurately ripped (confidence 1) [0B704A57] (AR v2)
All tracks accurately ripped
End of status report
---- CUETools DB Plugin V2.1.6
[CTDB TOCID: DOSkRCS1R3RZzNsJ0LERdx4DGio-] foundSubmit result: DOSkRCS1R3RZzNsJ0LERdx4DGio- has been confirmedTrack | CTDB Status 1 | (1/1) Accurately ripped 2 | (1/1) Accurately ripped 3 | (1/1) Accurately ripped 4 | (1/1) Accurately ripped 5 | (1/1) Accurately ripped 6 | (1/1) Accurately ripped 7 | (1/1) Accurately ripped 8 | (1/1) Accurately ripped 9 | (1/1) Accurately ripped 10 | (1/1) Accurately ripped 11 | (1/1) Accurately ripped
==== Log checksum 6E59A8CCC447CCAEF0F27A39ADE9C7C379A140249B267137D44FC5A055808911 ====

Лог проверки качества

-----------------------
DON'T MODIFY THIS FILE
-----------------------
PERFORMER: auCDtect Task Manager, ver. 1.6.0 RC1 build 1.6.0.1Copyright (c) 2008-2010 y-soft. All rights reservedhttp://y-soft.org
ANALYZER: auCDtect: CD records authenticity detector, version 0.8.2Copyright (c) 2004 Oleg Berngardt. All rights reserved.Copyright (c) 2004 Alexander Djourik. All rights reserved.
FILE: Avoid Catoblépone - Décharné De L'âme.flac Size: 392447567 Hash: B84CBB3274E8551F01B0455112A6070B Accuracy: -m0 Conclusion: CDDA 100% Signature: B15F4F3F33CDAE955EEF746E65DB72234D17F943
-

Доп. информация

Track 12 is a CD-ROM multimedia track that contains biographies, discographies, mp3s, photos, press articles, contact info, links, etc.
-


[torrentc.info]_t_5460261.torrent
Торрент: Зарегистрирован ·  [ 2017-10-04 13:00 ] ·  c07b7424e982112c4f668d3e2cbbc7f559de83ec

60 KB

Статус: проверено
Скачан: 0 раз
Размер: 1.06 GB
Оценка: 
(Голосов: 0)
Сказали спасибо: 0  Спасибо
Похожие темы
[Профиль]    [ЛС]
Показать сообщения:    
Ответить на тему

Текущее время: Сегодня 00:22

Часовой пояс: GMT + 7



Вы не можете начинать темы
Вы не можете отвечать на сообщения
Вы не можете редактировать свои сообщения
Вы не можете удалять свои сообщения
Вы не можете голосовать в опросах
Вы не можете прикреплять файлы к сообщениям
Вы можете скачивать файлы