(Ethereal, Dreampop) Love Spirals Downwards - Temporal: A Collection Of Music Past & Present - 2000 (tracks+.cue)

Ответить на тему
Статистика раздачи [Обновить пиров]
Размер:  429 MB   |    Зарегистрирован:  1 год   |    Скачан:  0 раз

Полного источника не было: Никогда

 
   
 
 
 
Автор Сообщение

torrentc.info

Создавать темы 27-Сен-2017 17:16

[Цитировать]

Love Spirals Downwards - Temporal: A Collection Of Music Past & Present
Жанр: Ethereal, Dreampop
Год выхода диска: 2000
Производитель диска: USA
Label: Projekt
Catalog#: PRO00097
Style: Folk Rock, Downtempo, Psychedelic Rock, Drum n Bass, Ambient
Notes: All music written, performed, recorded, mixed and produced by Ryan Lum. Vocals by Suzanne Perry. Vocal arrangements and Lyrics by Perry & Lum. Track 9 co-written by Kristen Perry-Gow. Lyrics track 11 are a new arrangement of the traditional song, "This Endris Night". Tracks 1, 2, & 8 previously unreleased. Tracks 4 & 13 taken from compilations. Track 6 taken from a CD single.
Аудио кодек: FLAC
Тип рипа: tracks+.cue
Битрейт аудио: lossless
Продолжительность: 01:06:53
Трэклист:
1 Alicia (Remix) (4:48)
2 Misunderstood (I'll Always Love You Remix) (8:01)
3 Ring (5:59)
4 Asleep (5:55)
5 Madras (6:06)
6 Amarillo (4:23)
7 Above the Lone (4:12)
8 Subsequently (Live) (4:51)
9 Kykeon (4:46)
10 Depression Glass (4:44)
11 This Endris Night (3:13)
12 Ladonna Dissima (4:31)
13 Mediterrenea (5:18)
Доп. информация:
http://prolix.virtualis.lv писал(а):Собрание сочинений дуэта LSD (Ryan Lum, Suzanne Perry), состоящее из ранних песен, ремиксов и ранее не видевшего свет материала. Творческое развитие проекта с каждым альбомом эволюционировало в лучшую сторону; немудрено, что на диске композиции расположены в обратном хронологическом порядке согласно времени их записи. Начинается компиляция с прозрачных джангловых увертюр, которые плавно перетекают в скользкий гитарный косморок наподобие Cocteau Twins и заканчивается звуковыми пространствами, в которой вокал Сюзанны растворяется точно солнечный луч в глубокой яме. В общем-то, это не сборник самых лучших творений группы, но и далеко не самых худших. Еще одно подтверждение тому, что LSD — несомненно, дуэт одаренных и талантливых композиторов, способных передать свое мелодичное, светлое настроение в звуке слушателю.

LOG

Exact Audio Copy V0.99 prebeta 4 from 23. January 2008
EAC extraction logfile from 10. October 2008, 15:27
Love Spirals Downwards / Temporal: A Collection Of Music Past & Present
Used drive : _NEC DVD_RW ND-3540A Adapter: 1 ID: 0
Read mode : SecureUtilize accurate stream : YesDefeat audio cache : NoMake use of C2 pointers : Yes
Read offset correction : 48Overread into Lead-In and Lead-Out : NoFill up missing offset samples with silence : YesDelete leading and trailing silent blocks : NoNull samples used in CRC calculations : NoUsed interface : Installed external ASPI interfaceGap handling : Not detected, thus appended to previous track
Used output format : User Defined EncoderSelected bitrate : 192 kBit/sQuality : HighAdd ID3 tag : YesCommand line compressor : C:\Program Files\FLAC\flac.exeAdditional command line options : -T "artist=%a" -T "title=%t" -T "album=%g" -T "date=%y" -T "tracknumber=%n" -T "genre=%m" %s
TOC of the extracted CD
Track | Start | Length | Start sector | End sector --------------------------------------------------------- 1 | 0:00.00 | 4:48.37 | 0 | 21636 2 | 4:48.37 | 8:01.53 | 21637 | 57764 3 | 12:50.15 | 5:59.05 | 57765 | 84694 4 | 18:49.20 | 5:55.57 | 84695 | 111376 5 | 24:45.02 | 6:06.40 | 111377 | 138866 6 | 30:51.42 | 4:23.58 | 138867 | 158649 7 | 35:15.25 | 4:12.07 | 158650 | 177556 8 | 39:27.32 | 4:51.15 | 177557 | 199396 9 | 44:18.47 | 4:46.55 | 199397 | 220901 10 | 49:05.27 | 4:44.28 | 220902 | 242229 11 | 53:49.55 | 3:13.42 | 242230 | 256746 12 | 57:03.22 | 4:31.08 | 256747 | 277079 13 | 61:34.30 | 5:18.30 | 277080 | 300959
Track 1
Filename D:\Music\CD\Love Spirals Downwards - Temporal- A Collection Of Music Past & Present\01-Alicia (Remix).wav
Peak level 93.3 % Track quality 100.0 % Copy CRC 3F5F473A Accurately ripped (confidence 4) [5C4237F3] Copy OK
Track 2
Filename D:\Music\CD\Love Spirals Downwards - Temporal- A Collection Of Music Past & Present\02-Misunderstood (I'll Always Love You Remix).wav
Peak level 93.3 % Track quality 100.0 % Copy CRC 457353BD Accurately ripped (confidence 4) [16555C6E] Copy OK
Track 3
Filename D:\Music\CD\Love Spirals Downwards - Temporal- A Collection Of Music Past & Present\03-Ring.wav
Peak level 93.3 % Track quality 100.0 % Copy CRC 22F934D5 Accurately ripped (confidence 4) [7979EE92] Copy OK
Track 4
Filename D:\Music\CD\Love Spirals Downwards - Temporal- A Collection Of Music Past & Present\04-Asleep.wav
Peak level 85.1 % Track quality 100.0 % Copy CRC 70DEEF5D Accurately ripped (confidence 4) [BA273939] Copy OK
Track 5
Filename D:\Music\CD\Love Spirals Downwards - Temporal- A Collection Of Music Past & Present\05-Madras.wav
Peak level 96.6 % Track quality 99.9 % Copy CRC 02BBE24C Accurately ripped (confidence 4) [A00F1C9D] Copy OK
Track 6
Filename D:\Music\CD\Love Spirals Downwards - Temporal- A Collection Of Music Past & Present\06-Amarillo.wav
Peak level 96.6 % Track quality 100.0 % Copy CRC DE99B648 Accurately ripped (confidence 4) [6B56753F] Copy OK
Track 7
Filename D:\Music\CD\Love Spirals Downwards - Temporal- A Collection Of Music Past & Present\07-Above The Lone.wav
Peak level 96.6 % Track quality 100.0 % Copy CRC 5F278FC1 Accurately ripped (confidence 4) [9A8B9011] Copy OK
Track 8
Filename D:\Music\CD\Love Spirals Downwards - Temporal- A Collection Of Music Past & Present\08-Subsequently (Live).wav
Peak level 96.6 % Track quality 100.0 % Copy CRC FD405988 Accurately ripped (confidence 4) [6F534588] Copy OK
Track 9
Filename D:\Music\CD\Love Spirals Downwards - Temporal- A Collection Of Music Past & Present\09-Kykeon.wav
Peak level 96.6 % Track quality 100.0 % Copy CRC 235D92B1 Accurately ripped (confidence 4) [E290206E] Copy OK
Track 10
Filename D:\Music\CD\Love Spirals Downwards - Temporal- A Collection Of Music Past & Present\10-Depression Glass.wav
Peak level 96.6 % Track quality 100.0 % Copy CRC 4740AF56 Accurately ripped (confidence 4) [7A889A06] Copy OK
Track 11
Filename D:\Music\CD\Love Spirals Downwards - Temporal- A Collection Of Music Past & Present\11-This Endris Night.wav
Peak level 96.6 % Track quality 100.0 % Copy CRC A1EECAF1 Accurately ripped (confidence 4) [A97710EF] Copy OK
Track 12
Filename D:\Music\CD\Love Spirals Downwards - Temporal- A Collection Of Music Past & Present\12-Ladonna Dissima.wav
Peak level 96.6 % Track quality 100.0 % Copy CRC FE31F1E7 Accurately ripped (confidence 4) [D9EDF386] Copy OK
Track 13
Filename D:\Music\CD\Love Spirals Downwards - Temporal- A Collection Of Music Past & Present\13-Mediterrenea.wav
Peak level 96.6 % Track quality 100.0 % Copy CRC E942CCBB Accurately ripped (confidence 3) [C868B083] Copy OK
All tracks accurately ripped
No errors occurred
End of status report
Рип не мой. Взято с what.cd - аплоадер Nawak03. На мой взглядЮ настройки ЕАС, мягко говоря, неправильные, тем не менее AccurateRip одобрил этот рип


[torrentc.info]_t_1672980.torrent
Торрент: Зарегистрирован ·  [ 2017-09-27 17:06 ] ·  9a8f5c11b93f887d72631c421782f5be44a8f2d4

18 KB

Статус: проверено
Скачан: 0 раз
Размер: 429 MB
Оценка: 
(Голосов: 0)
Сказали спасибо: 0  Спасибо
Похожие темы
[Профиль]    [ЛС]
Показать сообщения:    
Ответить на тему

Текущее время: Сегодня 01:41

Часовой пояс: GMT + 7



Вы не можете начинать темы
Вы не можете отвечать на сообщения
Вы не можете редактировать свои сообщения
Вы не можете удалять свои сообщения
Вы не можете голосовать в опросах
Вы не можете прикреплять файлы к сообщениям
Вы можете скачивать файлы