(World fusion, Baroque orchestral) Lisa Gerrard - The Mirror Pool - 1995, FLAC (tracks+.cue), lossless

Ответить на тему
Статистика раздачи [Обновить пиров]
Размер:  337 MB   |    Зарегистрирован:  8 месяцев 26 дней   |    Скачан:  0 раз

Полного источника не было: Никогда

Личеров:  1  [  0 KB/s  ]   Подробная статистика скачивающих
 
   
 
 
 
Автор Сообщение

torrentc.info

Создавать темы 27-Сен-2017 17:16

[Цитировать]

Lisa Gerrard - The Mirror Pool
Жанр: World fusion / Baroque orchestral
Год выхода: 1995
Носитель: CD
Производитель: United Kingdom
Аудио кодек: FLAC
Тип рипа: tracks+.cue
Битрейт аудио: lossless
Продолжительность: 01h:08m:07s
tracklisting:
01. Violina (The Last Embrace)
02. La Bas (Song of the Drowned)
03. Persian Love Song (The Silver Gun)
04. Sanvean (I Am Your Shadow)
05. The Rite
06. Ajhon
07. Glorafin
08. Majhnavea's Music Box
09. Largo
10. Werd
11. Laurelei
12. Celon
13. Venteles
14. Swans
15. Nilleshna
16. Gloradin

отчёт EAC

Exact Audio Copy V0.99 prebeta 4 from 23. January 2008
EAC extraction logfile from 15. October 2009, 15:40
Lisa Gerrard / The Mirror Pool
Used drive : Optiarc DVD RW AD-7203S Adapter: 0 ID: 0
Read mode : SecureUtilize accurate stream : YesDefeat audio cache : YesMake use of C2 pointers : No
Read offset correction : 48Overread into Lead-In and Lead-Out : NoFill up missing offset samples with silence : YesDelete leading and trailing silent blocks : NoNull samples used in CRC calculations : YesUsed interface : Native Win32 interface for Win NT & 2000Gap handling : Appended to previous track
Used output format : User Defined EncoderSelected bitrate : 768 kBit/sQuality : HighAdd ID3 tag : NoCommand line compressor : C:\Program Files\Exact Audio Copy\FLAC\FLAC.EXEAdditional command line options : -6 -V -T "ARTIST=%a" -T "TITLE=%t" -T "ALBUM=%g" -T "DATE=%y" -T "TRACKNUMBER=%n" -T "GENRE=%m" -T "COMMENT=%e" %s -o %d
TOC of the extracted CD
Track | Start | Length | Start sector | End sector --------------------------------------------------------- 1 | 0:00.00 | 5:43.65 | 0 | 25789 2 | 5:43.65 | 7:41.01 | 25790 | 60365 3 | 13:24.66 | 2:33.15 | 60366 | 71855 4 | 15:58.06 | 3:48.42 | 71856 | 88997 5 | 19:46.48 | 3:22.05 | 88998 | 104152 6 | 23:08.53 | 3:09.58 | 104153 | 118385 7 | 26:18.36 | 4:50.55 | 118386 | 140190 8 | 31:09.16 | 1:34.00 | 140191 | 147240 9 | 32:43.16 | 2:51.74 | 147241 | 160139 10 | 35:35.15 | 1:39.31 | 160140 | 167595 11 | 37:14.46 | 5:57.38 | 167596 | 194408 12 | 43:12.09 | 6:06.58 | 194409 | 221916 13 | 49:18.67 | 2:36.23 | 221917 | 233639 14 | 51:55.15 | 5:45.67 | 233640 | 259581 15 | 57:41.07 | 6:29.62 | 259582 | 288818 16 | 64:10.69 | 3:56.08 | 288819 | 306526
Track 1
Filename E:\Stuff\Lisa Gerrard - The Mirror Pool\01 - Violina (The Last Embrace).wav
Pre-gap length 0:00:02.00
Peak level 91.7 % Track quality 100.0 % Test CRC 2DB344A2 Copy CRC 2DB344A2 Copy OK
Track 2
Filename E:\Stuff\Lisa Gerrard - The Mirror Pool\02 - La Bas (Song of the Drowned).wav
Peak level 95.3 % Track quality 100.0 % Test CRC 1E5FD7D9 Copy CRC 1E5FD7D9 Copy OK
Track 3
Filename E:\Stuff\Lisa Gerrard - The Mirror Pool\03 - Persian Love Song (The Silver Gun).wav
Peak level 86.0 % Track quality 100.0 % Test CRC A2C3257E Copy CRC A2C3257E Copy OK
Track 4
Filename E:\Stuff\Lisa Gerrard - The Mirror Pool\04 - Sanvean (I Am Your Shadow).wav
Peak level 95.3 % Track quality 100.0 % Test CRC 66083A12 Copy CRC 66083A12 Copy OK
Track 5
Filename E:\Stuff\Lisa Gerrard - The Mirror Pool\05 - The Rite.wav
Peak level 95.3 % Track quality 100.0 % Test CRC 4701608C Copy CRC 4701608C Copy OK
Track 6
Filename E:\Stuff\Lisa Gerrard - The Mirror Pool\06 - Ajhon.wav
Peak level 85.1 % Track quality 100.0 % Test CRC 25DEB54D Copy CRC 25DEB54D Copy OK
Track 7
Filename E:\Stuff\Lisa Gerrard - The Mirror Pool\07 - Glorafin.wav
Peak level 95.3 % Track quality 100.0 % Test CRC CFAC5977 Copy CRC CFAC5977 Copy OK
Track 8
Filename E:\Stuff\Lisa Gerrard - The Mirror Pool\08 - Majhnavea's Music Box.wav
Peak level 71.8 % Track quality 100.0 % Test CRC 0730E01B Copy CRC 0730E01B Copy OK
Track 9
Filename E:\Stuff\Lisa Gerrard - The Mirror Pool\09 - Largo.wav
Peak level 79.1 % Track quality 99.9 % Test CRC 731EFAD0 Copy CRC 731EFAD0 Copy OK
Track 10
Filename E:\Stuff\Lisa Gerrard - The Mirror Pool\10 - Werd.wav
Peak level 55.1 % Track quality 100.0 % Test CRC 53679695 Copy CRC 53679695 Copy OK
Track 11
Filename E:\Stuff\Lisa Gerrard - The Mirror Pool\11 - Laurelei.wav
Peak level 51.8 % Track quality 100.0 % Test CRC A1B505F5 Copy CRC A1B505F5 Copy OK
Track 12
Filename E:\Stuff\Lisa Gerrard - The Mirror Pool\12 - Celon.wav
Peak level 67.6 % Track quality 100.0 % Test CRC C18303E0 Copy CRC C18303E0 Copy OK
Track 13
Filename E:\Stuff\Lisa Gerrard - The Mirror Pool\13 - Venteles.wav
Peak level 60.9 % Track quality 100.0 % Test CRC 672322DB Copy CRC 672322DB Copy OK
Track 14
Filename E:\Stuff\Lisa Gerrard - The Mirror Pool\14 - Swans.wav
Peak level 95.3 % Track quality 100.0 % Test CRC 777F44D2 Copy CRC 777F44D2 Copy OK
Track 15
Filename E:\Stuff\Lisa Gerrard - The Mirror Pool\15 - Nilleshna.wav
Peak level 61.1 % Track quality 99.9 % Test CRC B7AB9400 Copy CRC B7AB9400 Copy OK
Track 16
Filename E:\Stuff\Lisa Gerrard - The Mirror Pool\16 - Gloradin.wav
Peak level 91.4 % Track quality 99.9 % Test CRC 054748EC Copy CRC 054748EC Copy OK
No errors occurred
End of status report

содержание индексной карты (.cue)

REM GENRE MiscREM DATE 1995REM DISCID EB0FF710REM COMMENT "ExactAudioCopy v0.99pb4"PERFORMER "Lisa Gerrard"TITLE "The Mirror Pool"FILE "01 - Violina (The Last Embrace).flac" WAVE TRACK 01 AUDIO TITLE "Violina (The Last Embrace)" PERFORMER "Lisa Gerrard" INDEX 01 00:00:00FILE "02 - La Bas (Song of the Drowned).flac" WAVE TRACK 02 AUDIO TITLE "La Bas (Song of the Drowned)" PERFORMER "Lisa Gerrard" INDEX 01 00:00:00FILE "03 - Persian Love Song (The Silver Gun).flac" WAVE TRACK 03 AUDIO TITLE "Persian Love Song (The Silver Gun)" PERFORMER "Lisa Gerrard" INDEX 01 00:00:00FILE "04 - Sanvean (I Am Your Shadow).flac" WAVE TRACK 04 AUDIO TITLE "Sanvean (I Am Your Shadow)" PERFORMER "Lisa Gerrard" INDEX 01 00:00:00FILE "05 - The Rite.flac" WAVE TRACK 05 AUDIO TITLE "The Rite" PERFORMER "Lisa Gerrard" INDEX 01 00:00:00FILE "06 - Ajhon.flac" WAVE TRACK 06 AUDIO TITLE "Ajhon" PERFORMER "Lisa Gerrard" INDEX 01 00:00:00FILE "07 - Glorafin.flac" WAVE TRACK 07 AUDIO TITLE "Glorafin" PERFORMER "Lisa Gerrard" INDEX 01 00:00:00FILE "08 - Majhnavea's Music Box.flac" WAVE TRACK 08 AUDIO TITLE "Majhnavea's Music Box" PERFORMER "Lisa Gerrard" INDEX 01 00:00:00FILE "09 - Largo.flac" WAVE TRACK 09 AUDIO TITLE "Largo" PERFORMER "Lisa Gerrard" INDEX 01 00:00:00FILE "10 - Werd.flac" WAVE TRACK 10 AUDIO TITLE "Werd" PERFORMER "Lisa Gerrard" INDEX 01 00:00:00FILE "11 - Laurelei.flac" WAVE TRACK 11 AUDIO TITLE "Laurelei" PERFORMER "Lisa Gerrard" INDEX 01 00:00:00FILE "12 - Celon.flac" WAVE TRACK 12 AUDIO TITLE "Celon" PERFORMER "Lisa Gerrard" INDEX 01 00:00:00FILE "13 - Venteles.flac" WAVE TRACK 13 AUDIO TITLE "Venteles" PERFORMER "Lisa Gerrard" INDEX 01 00:00:00FILE "14 - Swans.flac" WAVE TRACK 14 AUDIO TITLE "Swans" PERFORMER "Lisa Gerrard" INDEX 01 00:00:00FILE "15 - Nilleshna.flac" WAVE TRACK 15 AUDIO TITLE "Nilleshna" PERFORMER "Lisa Gerrard" INDEX 01 00:00:00FILE "16 - Gloradin.flac" WAVE TRACK 16 AUDIO TITLE "Gloradin" PERFORMER "Lisa Gerrard" INDEX 01 00:00:00

Доп. информация

The Mirror Pool is Lisa Gerrard's first solo album, released in 1995 (one year before the release of Spiritchaser, the last work Dead Can Dance put out before disbanding in 1998). About the album's title, Gerrard explained: " If you read about African music, they believe that during the process of making this music that you come into contact with spirits from another plane. They say that this place is like a mirror of the world we live in, [...] With the best music, you don't find the composer or the musicians within the work, you find yourself, your own feelings. The repertoire of this album spans seven years from 1988 to 1995, featuring some of her material not worked into Dead Can Dance albums, as explained by Gerrard: " There is usually a surplus of work that overlaps the continuous nature of a Dead Can Dance record. Some of these pieces, which were not realized for reason of continuity, have been collected together in the form of largely orchestral-based works and pieces written primarily for 'voice' music.


[torrentc.info]_t_2312400.torrent
Торрент: Зарегистрирован ·  [ 2017-09-27 17:06 ] ·  03b36c08deb708c66f159d2fe84e3e7369555b9c

15 KB

Статус: проверено
Скачан: 0 раз
Размер: 337 MB
Оценка: 
(Голосов: 0)
Сказали спасибо: 0  Спасибо
Похожие темы
[Профиль]    [ЛС]
Показать сообщения:    
Ответить на тему

Текущее время: Сегодня 00:34

Часовой пояс: GMT + 7



Вы не можете начинать темы
Вы не можете отвечать на сообщения
Вы не можете редактировать свои сообщения
Вы не можете удалять свои сообщения
Вы не можете голосовать в опросах
Вы не можете прикреплять файлы к сообщениям
Вы можете скачивать файлы