Arthur H - Soleil Dedans - le concert aux Nova Sessions [2014, Jazz, Blues, French Chanson, Live, IPTVRip-AVC]

Ответить на тему
Статистика раздачи [Обновить пиров]
Размер:  748 MB   |    Зарегистрирован:  1 год 10 месяцев   |    Скачан:  0 раз

Полного источника не было: Никогда

 
   
 
 
 
Автор Сообщение

torrentc.info

Создавать темы 15-Фев-2017 22:31

[Цитировать]

Arthur H - Soleil Dedans
le concert aux Nova Sessions- Страна: Франция
Жанр: Jazz, Blues, French Chanson, Live
Продолжительность: 01:13:55
Год выхода: 2014 г.Описание: Французский автор-исполнитель и пианист Артур Аш изучал музыку в университете Бостона и во время путешествия по Вест-Индии. Вернувшись в Париж, создал собственный музыкальный стиль, вдохновлённый французским кабаретным шансоном, а также американским джазом и блюзом. Артур Аш в передаче Nova Sessions студии Radio Nova представляет свой новый альбом Soleil Dedans (2014).Треклист:
01. L’autre côté de la lune
02. La ballade des cland
03. La caissière du super
04. Oh là haut!
05. Une femme qui pleure
06. Navigateur solitaire
07. L’aéroport de Los Angeles
08. La femme étoile
09. Les papous c’est nous
10. La dernière nuit à New York
11. India Song (avec Lou Marco) (Carlos d'Alessio/Marguerite Duras)
12. Le bonheur c’est l’eau
Качество: IPTVRip-AVC
Формат файла: MKV
Видео кодек: H.264
Аудио кодек: AC3
Видео: AVC (H.264), 1152x480 (2,4:1), 25 fps, ~1220 kbps avg, 0.088 bit/pixel
Аудио: AC3, 2 ch, 48 kHz, ~192.00 kbps avg

MediaInfo

Общее
Уникальный идентификатор : 235166303242818682343401483719134283679 (0xB0EB61EDA861D0EF9F05C4769D56079F)
Полное имя : E:\My Torrents 2\[apreder]Arthur_H_aux_Nova_Sessions(02.10.2014)HDTVRip.mkv
Формат файла : Matroska
Версия формата : Version 2
Размер файла : 748 Мбайт
Продолжительность : 1 ч. 13 м.
Общий поток : 1414 Кбит/сек
Дата кодирования : UTC 2015-01-09 14:22:44
Программа кодирования : mkvmerge v7.5.0 ('Glass Culture') 64bit built on Jan 4 2015 16:48:44
Библиотека кодирования : libebml v1.3.1 + libmatroska v1.4.2
Видео
Идентификатор : 1
Формат файла : AVC
Формат файла/Информация : Advanced Video Codec
Профиль формата : High@L4.1
Параметр CABAC формата : Да
Параметр ReFrames формата : 15 кадров
Идентификатор кодека : V_MPEG4/ISO/AVC
Продолжительность : 1 ч. 13 м.
Битрейт : 1220 Кбит/сек
Ширина : 1152 пикселя
Высота : 480 пикселей
Соотношение сторон : 2,40:1
Режим частоты кадров : Постоянный
Частота кадров : 25,000 кадров/сек
Цветовое пространство : YUV
Субдискретизация насыщенности : 4:2:0
Битовая глубина : 8 бит
Тип развёртки : Прогрессивная
Бит/(Пиксели*Кадры) : 0.088
Размер потока : 631 Мбайт (84%)
Библиотека кодирования : x264 core 144 r2525 40bb568
Настройки программы : cabac=1 / ref=15 / deblock=1:-1:-1 / analyse=0x3:0x133 / me=umh / subme=10 / psy=1 / psy_rd=1.00:0.15 / mixed_ref=1 / me_range=24 / chroma_me=1 / trellis=2 / 8x8dct=1 / cqm=0 / deadzone=21,11 / fast_pskip=1 / chroma_qp_offset=-3 / threads=6 / lookahead_threads=1 / sliced_threads=0 / nr=0 / decimate=1 / interlaced=0 / bluray_compat=0 / constrained_intra=0 / bframes=8 / b_pyramid=2 / b_adapt=2 / b_bias=0 / direct=3 / weightb=1 / open_gop=0 / weightp=2 / keyint=250 / keyint_min=25 / scenecut=40 / intra_refresh=0 / rc_lookahead=60 / rc=2pass / mbtree=1 / bitrate=1220 / ratetol=1.0 / qcomp=0.60 / qpmin=0 / qpmax=69 / qpstep=4 / cplxblur=20.0 / qblur=0.5 / vbv_maxrate=62500 / vbv_bufsize=78125 / nal_hrd=none / filler=0 / ip_ratio=1.40 / aq=1:1.00
Default : Да
Forced : Нет
Аудио
Идентификатор : 2
Формат файла : AC-3
Формат файла/Информация : Audio Coding 3
Расширение режима : CM (complete main)
Параметр Endianness формата : Big
Идентификатор кодека : A_AC3
Продолжительность : 1 ч. 13 м.
Вид битрейта : Постоянный
Битрейт : 192 Кбит/сек
Каналы : 2 канала
Расположение каналов : Front: L R
Частота : 48,0 КГц
Битовая глубина : 16 бит
Метод сжатия : С потерями
Размер потока : 102 Мбайт (14%)
Язык : French
Default : Да
Forced : Нет

Скриншоты

Резервные скриншоты

-[2'044]


[torrentc.info]_torrent-4911110.torrent
Торрент: Зарегистрирован ·  [ 2017-02-15 22:12 ] ·  0a1aa55a74fa96203313cb0893fae5a4c8055a86

15 KB

Статус: проверено
Скачан: 0 раз
Размер: 748 MB
Оценка: 
(Голосов: 0)
Сказали спасибо: 0  Спасибо
Похожие темы
[Профиль]    [ЛС]
Показать сообщения:    
Ответить на тему

Текущее время: Сегодня 19:52

Часовой пояс: GMT + 7



Вы не можете начинать темы
Вы не можете отвечать на сообщения
Вы не можете редактировать свои сообщения
Вы не можете удалять свои сообщения
Вы не можете голосовать в опросах
Вы не можете прикреплять файлы к сообщениям
Вы можете скачивать файлы