Louis Delort & The Sheperds – Louis Delort & The Sheperds - Musique Acoustic от 14.01.2015 - TV5MONDE (Филипп Сомме / Philippe Sommet) [2015, French Chanson, Pop, Folk-Rock, Live, DVB]

Ответить на тему
Статистика раздачи [Обновить пиров]
Размер:  758 MB   |    Зарегистрирован:  1 год 5 месяцев   |    Скачан:  0 раз

Полного источника не было: Никогда

 
   
 
 
 
Автор Сообщение

torrentc.info

Создавать темы 15-Фев-2017 22:31

[Цитировать]

Louis Delort & The Sheperds – Louis Delort & The Sheperds
Musique Acoustic от 14.01.2015 - TV5MONDE- Страна: Франция
Жанр: French Chanson, Pop, Folk-Rock, Live
Продолжительность: 00:26:49
Год выхода: 2014 г.
Перевод: Субтитры (перевод И.Рыбкиной, Éclair Group)
Cубтитры: русские
Режиссер: Филипп Сомме / Philippe SommetОписание: Музыкальная передача Musique Acoustic канала французского телевидения TV5MONDE представляет преимущественно французских же талантливых молодых исполнителей, чье живое выступление в студии без зрителей может состоять из одной или нескольких песен, иногда передача бывает полностью посвящена одному исполнителю, презентующему новый альбом. Musique Acoustic выходит в эфир раз в 1-2 недели. Ведущим передачи c 2006 года является ее создатель - популярный радио – и телеведущий - Sébastien Folin, получивший известность в 2005 году серией из 20 коротких программ для TF1 "Любовь в 20 лет".
Сегодня в студии молодые французские исполнители Louis Delort & The Sheperds представят свой дебютный одноименный альбом Louis Delort & The Sheperds (2014). Луи Делор - талантливый певец и музыкант, участник первого сезона французского телешоу The Voice: La plus Belle Voix, дошедший до финала и занявший 2 место категории "Самый красивый вокал". В 2013 году был занят в мюзикле 1789: Les Amants de la Bastille.
Треклист:
01. Outre-Manche
02. Sans retour
03. Emmène-moi
04. Retrouvailles
05. Château de sable-[url=tracker.php?nm=Musique%20Acoustic%20TV5MONDE]Передачи Musique Acoustic[/url]-Дополнительная информация: перевод интервью вшитыми русскими субтитрами.
Источник: TV5MONDE DVB-S
Качество: DVB
Формат файла: MKV
Видео кодек: MPEG2
Аудио кодек: MP2
Видео: MPEG Video 2, 704x576@1024x576 (16:9), 25 fps, ~3680 kbps avg, ~0.363 bit/pixel
Аудио: 48 kHz, MPEG Audio 2, 2 ch, ~192.00 kbps avg
Формат файла субтитров: hardsub (неотключаемые)

MediaInfo

ОбщееУникальный идентификатор : 251377473775985416753844353354509982308 (0xBD1D8A583DD4448CA241D9CD329E1A64)Полное имя : H:\My Torrents\[apreder]TV5MONDE_Musique_Acoustic\[apreder]TV5MONDE_Musique_Aqoustic_Louis_Delort_&_The_Sheperds(14.01.2015)DVB.mkvФормат файла : MatroskaВерсия формата : Version 2Размер файла : 758 МбайтПродолжительность : 26 м.Режим общего битрейта : ПеременныйОбщий поток : 3951 Кбит/секДата кодирования : UTC 2015-01-14 14:44:48Программа кодирования : mkvmerge v7.5.0 ('Glass Culture') 64bit built on Jan 4 2015 16:48:44Библиотека кодирования : libebml v1.3.1 + libmatroska v1.4.2
ВидеоИдентификатор : 1Формат файла : MPEG VideoВерсия формата : Version 2Профиль формата : Main@MainПараметр BVOP формата : ДаПараметр матрицы формата : ВыборочнаяПараметр GOP формата : M=3, N=15Format_Settings_PictureStructure : FrameИдентификатор кодека : V_MPEG2Идентификатор кодека/Информация : MPEG 1 or 2 VideoПродолжительность : 26 м.Вид битрейта : ПеременныйБитрейт : 3680 Кбит/секШирина : 704 пикселяВысота : 576 пикселейСоотношение сторон : 16:9Режим частоты кадров : ПостоянныйЧастота кадров : 25,000 кадров/секСтандарт вещания : PALЦветовое пространство : YUVСубдискретизация насыщенности : 4:2:0Битовая глубина : 8 битТип развёртки : ЧересстрочнаяПорядок развёртки : Верхнее поле первоеМетод сжатия : С потерямиБит/(Пиксели*Кадры) : 0.363Временной код первого кадра : 00:00:00:00Оригинал временного кода : Group of pictures headerРазмер потока : 706 Мбайт (93%)Default : ДаForced : НетGop_OpenClosed_FirstFrame : Closed
АудиоИдентификатор : 2Формат файла : MPEG AudioВерсия формата : Version 1Профиль формата : Layer 2Идентификатор кодека : A_MPEG/L2Идентификатор кодека/Подсказка : MP2Продолжительность : 26 м.Вид битрейта : ПостоянныйБитрейт : 192 Кбит/секКаналы : 2 каналаЧастота : 48,0 КГцМетод сжатия : С потерямиРазмер потока : 36,8 Мбайт (5%)Язык : FrenchDefault : ДаForced : Нет

Скриншоты

Резервные скриншоты

-[2'050]


[torrentc.info]_torrent-4915174.torrent
Торрент: Зарегистрирован ·  [ 2017-02-15 22:12 ] ·  bcffbac721c005e4338b776a5843a1c4e5030ee5

15 KB

Статус: проверено
Скачан: 0 раз
Размер: 758 MB
Оценка: 
(Голосов: 0)
Сказали спасибо: 0  Спасибо
Похожие темы
[Профиль]    [ЛС]
Показать сообщения:    
Ответить на тему

Текущее время: Сегодня 22:18

Часовой пояс: GMT + 7



Вы не можете начинать темы
Вы не можете отвечать на сообщения
Вы не можете редактировать свои сообщения
Вы не можете удалять свои сообщения
Вы не можете голосовать в опросах
Вы не можете прикреплять файлы к сообщениям
Вы можете скачивать файлы