Anouk Aiata - La femme mangeuse des nuages du ciel - Musique Acoustic от 29.09.2013 - TV5MONDE (Филипп Сомме / Philippe Sommet) [2013, French Chanson, Jazz, Gypsy, Live, DVB]

Ответить на тему
Статистика раздачи [Обновить пиров]
Размер:  666 MB   |    Зарегистрирован:  1 год 7 месяцев   |    Скачан:  0 раз

Полного источника не было: Никогда

 
   
 
 
 
Автор Сообщение

torrentc.info

Создавать темы 15-Фев-2017 22:31

[Цитировать]

Anouk Aïata - La femme mangeuse des nuages du ciel
Musique Acoustic от 29.09.2013 - TV5MONDE- Страна: Франция
Жанр: French Chanson, Jazz, Gypsy, Live
Продолжительность: 00:26:37
Год выхода: 2013 г.Режиссер: Филипп Сомме / Philippe Sommet
Описание: Музыкальная передача Musique Acoustic канала французского телевидения TV5MONDE представляет преимущественно французских же талантливых молодых исполнителей, чье живое выступление в студии без зрителей может состоять из одной или нескольких песен, иногда передача бывает полностью посвящена одному исполнителю, презентующему новый альбом. Musique Acoustic выходит в эфир раз в 1-2 недели. Ведущим передачи c 2006 года является ее создатель - популярный радио – и телеведущий - Sébastien Folin, получивший известность в 2005 году серией из 20 коротких программ для TF1 "Любовь в 20 лет".
Сегодня в программе молодая французская певица Anouk Aïata представит дебютный альбом La femme mangeuse des nuages du ciel (2013). "Девушка, питающаяся небесными облаками" - именно так переводится сценическое имя Анук Айата с маори - языка аборигенов Новой Зеландии. В ее музыкальной галактике в совершенной гармонии сожительствуют французский шансон, фламенко, госпел, джаз, фолк и цыганские ритмы. А у голоса этой девушки глубокий низкий тембр, и она сама по праву считает его своим главным оружием.
Треклист:
01. Minuit sonne
02. Pourquoi regardes tu la lune?
03. Lady Western
04. L'arbre à plumes
05. Ce n'est pas une larme-[url=tracker.php?nm=Musique%20Acoustic%20TV5MONDE]Передачи Musique Acoustic[/url]-Источник: TV5MONDE
Качество: DVB
Формат файла: MPEG-PS [url=viewtopic.php?p=58098458#58098458](См. при проблемах с просмотром видео)[/url]
Видео кодек: MPEG2
Аудио кодек: MP2
Видео: MPEG Video 2, 720x576@1024x576 (16:9), 25 fps, ~3228 kbps avg, ~0.311 bit/pixel
Аудио: 48 kHz, MPEG Audio 2, 2 ch, ~192.00 kbps avg

MediaInfo

Полное имя : H:\My Torrents\[apreder]TV5MONDE_Musique_Acoustic\[apreder]TV5MONDE_Musique_Aqoustic(29.09.2013)DVB.mpgФормат файла : MPEG-PSРазмер файла : 666 МбайтПродолжительность : 26 м.Режим общего битрейта : ПеременныйОбщий поток : 3490 Кбит/сек
ВидеоИдентификатор : 224 (0xE0)Формат файла : MPEG VideoВерсия формата : Version 2Профиль формата : Main@MainПараметр BVOP формата : ДаПараметр матрицы формата : ВыборочнаяПараметр GOP формата : M=3, N=24Продолжительность : 26 м.Вид битрейта : ПеременныйБитрейт : 3228 Кбит/секШирина : 720 пикселейВысота : 576 пикселейСоотношение сторон : 16:9Частота кадров : 25,000 кадров/секСтандарт вещания : PALЦветовое пространство : YUVСубдискретизация насыщенности : 4:2:0Битовая глубина : 8 битМетод сжатия : С потерямиБит/(Пиксели*Кадры) : 0.311TimeCode_FirstFrame : 00:00:00:00TimeCode_Source : Group of pictures headerРазмер потока : 616 Мбайт (93%)
АудиоИдентификатор : 192 (0xC0)Формат файла : MPEG AudioВерсия формата : Version 1Профиль формата : Layer 2Продолжительность : 26 м.Вид битрейта : ПостоянныйБитрейт : 192 Кбит/секКаналы : 2 каналаЧастота : 48,0 КГцМетод сжатия : С потерямиРазмер потока : 36,6 Мбайт (6%)

Скриншоты

Скриншоты - резерв

-989/971√


[torrentc.info]_torrent-4547820.torrent
Торрент: Зарегистрирован ·  [ 2017-02-15 22:12 ] ·  07e399bc081843cbe87a0890635ba195a2766cd9

13 KB

Статус: проверено
Скачан: 0 раз
Размер: 666 MB
Оценка: 
(Голосов: 0)
Сказали спасибо: 0  Спасибо
Похожие темы
[Профиль]    [ЛС]
Показать сообщения:    
Ответить на тему

Текущее время: Сегодня 02:41

Часовой пояс: GMT + 7



Вы не можете начинать темы
Вы не можете отвечать на сообщения
Вы не можете редактировать свои сообщения
Вы не можете удалять свои сообщения
Вы не можете голосовать в опросах
Вы не можете прикреплять файлы к сообщениям
Вы можете скачивать файлы