Lynda Lemay - Decibels et des silences - Musique Acoustic от 04.12.2016 - TV5MONDE (Филипп Сомме / Philippe Sommet) [2016, Chanson, Pop, Pop-Rock, Live, DVB]

Ответить на тему
Статистика раздачи [Обновить пиров]
Размер:  614 MB   |    Зарегистрирован:  1 год 5 месяцев   |    Скачан:  0 раз

Полного источника не было: Никогда

 
   
 
 
 
Автор Сообщение

torrentc.info

Создавать темы 15-Фев-2017 22:31

[Цитировать]

Lynda Lemay - Décibels et des silences
Musique Acoustic от 04.12.2016 - TV5MONDE- Страна: Франция
Жанр: Chanson, Pop, Pop-Rock, Live
Продолжительность: 00:26:55
Год выхода: 2016 г.
Перевод: Субтитры (перевод К.Семенюк, Éclair Media)
Cубтитры: русские, английские, немецкие, французские, нидерландские, румынские
Режиссер: Филипп Сомме / Philippe SommetОписание: Музыкальная передача Musique Acoustic канала французского телевидения TV5MONDE представляет преимущественно французских же талантливых молодых исполнителей, чье живое выступление в студии без зрителей может состоять из одной или нескольких песен, иногда передача бывает полностью посвящена одному исполнителю, презентующему новый альбом. Musique Acoustic выходит в эфир раз в 1-2 недели. Ведущим передачи c 2006 года является ее создатель - популярный радио – и телеведущий - Sébastien Folin, получивший известность в 2005 году серией из 20 коротких программ для TF1 "Любовь в 20 лет".
Сегодня в студии популярная квебекская певица и автор песен Lynda Lemay представляет свой новый альбом Décibels et des silences (2016).
Треклист:
01. C'est quoi un ventre
02. Attrape pas froid
03. Le plus fort c'est mon pere
04. Mon coeur de pomme
05. La visite-[url=tracker.php?nm=Musique%20Acoustic%20TV5MONDE]Передачи Musique Acoustic[/url]-Источник: Hot Bird (13.0°E) TV5MONDE Europe DVB-S
Качество: DVB
Формат файла: MKV
Видео кодек: MPEG2
Аудио кодек: MP2
Видео: MPEG Video 2, 720x576@1024x576 (16:9), 25 fps, ~2936 kbps avg, ~0.283 bit/pixel
Аудио: 48 kHz, MPEG Audio 2, 2 ch, 192.00 kbps avg
Формат файла субтитров: prerendered (IDX+SUB)

MediaInfo

GeneralUnique ID : 249726345319393619598165763840354738678 (0xBBDF8B6D3814EE099DA1C8BD766AE1F6)Complete name : [apreder]TV5MONDE_Musique_Aqoustic_Lynda_Lemay_Decibels_et_des_silences(04.12.2016)DVB.mkvFormat : MatroskaFormat version : Version 2File size : 614 MiBDuration : 26 min 55 sOverall bit rate mode : VariableOverall bit rate : 3 191 kb/sMovie name : AcousticReleased date : 2016-12-04Encoded date : UTC 2016-12-17 07:09:21Writing application : mkvmerge v9.6.0 ('Slave To Your Mind') 64bitWriting library : libebml v1.3.4 + libmatroska v1.4.5Cover : YesAttachments : cover.jpg / small_cover.jpgDIRECTOR : Philippe SommetGENRE : MusicKEYWORDS : Torrentc.orgLAW_RATING : 12+SUMMARY : Lynda Lemay - Dйcibels et des silences
VideoID : 1Format : MPEG VideoFormat version : Version 2Format profile : Main@MainFormat settings, BVOP : YesFormat settings, Matrix : CustomFormat settings, GOP : VariableFormat settings, picture structure : FrameCodec ID : V_MPEG2Codec ID/Info : MPEG 1 or 2 VideoDuration : 26 min 55 sBit rate mode : VariableBit rate : 2 936 kb/sWidth : 720 pixelsHeight : 576 pixelsDisplay aspect ratio : 16:9Frame rate mode : ConstantFrame rate : 25.000 FPSStandard : PALColor space : YUVChroma subsampling : 4:2:0Bit depth : 8 bitsScan type : InterlacedScan order : Top Field FirstCompression mode : LossyBits/(Pixel*Frame) : 0.283Time code of first frame : 00:00:00:00Time code source : Group of pictures headerGOP, Open/Closed : OpenGOP, Open/Closed of first frame : ClosedStream size : 565 MiB (92%)Default : YesForced : No
AudioID : 2Format : MPEG AudioFormat version : Version 1Format profile : Layer 2Mode : Joint stereoMode extension : Intensity Stereo + MS StereoCodec ID : A_MPEG/L2Codec ID/Hint : MP2Duration : 26 min 55 sBit rate mode : ConstantBit rate : 192 kb/sChannel(s) : 2 channelsSampling rate : 48.0 kHzCompression mode : LossyStream size : 37.0 MiB (6%)Language : FrenchDefault : YesForced : No
Text #1ID : 3Format : VobSubCodec ID : S_VOBSUBCodec ID/Info : Picture based subtitle format used on DVDsLanguage : RussianDefault : NoForced : No
Text #2ID : 4Format : UTF-8Codec ID : S_TEXT/UTF8Codec ID/Info : UTF-8 Plain TextLanguage : EnglishDefault : NoForced : No
Text #3ID : 5Format : UTF-8Codec ID : S_TEXT/UTF8Codec ID/Info : UTF-8 Plain TextLanguage : FrenchDefault : NoForced : No
Text #4ID : 6Format : VobSubCodec ID : S_VOBSUBCodec ID/Info : Picture based subtitle format used on DVDsLanguage : GermanDefault : NoForced : No
Text #5ID : 7Format : VobSubCodec ID : S_VOBSUBCodec ID/Info : Picture based subtitle format used on DVDsLanguage : DutchDefault : NoForced : No
Text #6ID : 8Format : VobSubCodec ID : S_VOBSUBCodec ID/Info : Picture based subtitle format used on DVDsLanguage : RomanianDefault : NoForced : No

Скриншоты

Резервные скриншоты

- [3'392]


[torrentc.info]_torrent-5327105.torrent
Торрент: Зарегистрирован ·  [ 2017-02-15 22:12 ] ·  281bb106f68369e093ac7b4b2749b75087e6055d

7 KB

Статус: проверено
Скачан: 0 раз
Размер: 614 MB
Оценка: 
(Голосов: 0)
Сказали спасибо: 0  Спасибо
Похожие темы
[Профиль]    [ЛС]
Показать сообщения:    
Ответить на тему

Текущее время: Сегодня 22:40

Часовой пояс: GMT + 7



Вы не можете начинать темы
Вы не можете отвечать на сообщения
Вы не можете редактировать свои сообщения
Вы не можете удалять свои сообщения
Вы не можете голосовать в опросах
Вы не можете прикреплять файлы к сообщениям
Вы можете скачивать файлы