Alice on the Roof – Higher - Musique Acoustic от 14.05.2016 - TV5MONDE (Филипп Сомме / Philippe Sommet) [2016, Indie Pop, Live, DVB]

Ответить на тему
Статистика раздачи [Обновить пиров]
Размер:  613 MB   |    Зарегистрирован:  1 год 8 месяцев   |    Скачан:  0 раз

Полного источника не было: Никогда

 
   
 
 
 
Автор Сообщение

torrentc.info

Создавать темы 15-Фев-2017 22:28

[Цитировать]

Alice on the Roof – Higher
Musique Acoustic от 14.05.2016 - TV5MONDE- Страна: Франция
Жанр: Indie Pop, Live
Продолжительность: 00:26:45
Год выхода: 2016 г.
Перевод: Субтитры (перевод К.Семенюк, Éclair Media)
Cубтитры: русские, английские, французские, нидерландские, румынские
Режиссер: Филипп Сомме / Philippe SommetОписание: Музыкальная передача Musique Acoustic канала французского телевидения TV5MONDE представляет преимущественно французских же талантливых молодых исполнителей, чье живое выступление в студии без зрителей может состоять из одной или нескольких песен, иногда передача бывает полностью посвящена одному исполнителю, презентующему новый альбом. Musique Acoustic выходит в эфир раз в 1-2 недели. Ведущим передачи c 2006 года является ее создатель - популярный радио – и телеведущий - Sébastien Folin, получивший известность в 2005 году серией из 20 коротких программ для TF1 "Любовь в 20 лет".
Сегодня в молодая французская певица Alice on the Roof представляет свой дебютный альбом Higher (2016).
Треклист:
01. Sound Of Drums
02. Easy Come Easy Go
03. Lucky You
04. Feel Tonight
05. On The Roof-[url=tracker.php?nm=Musique%20Acoustic%20TV5MONDE]Передачи Musique Acoustic[/url]-Источник: Hot Bird (13.0°E) TV5MONDE Europe DVB-S
Качество: DVB
Формат файла: MKV
Видео кодек: MPEG2
Аудио кодек: MP2
Видео: MPEG Video 2, 720x576@1024x576 (16:9), 25 fps, ~2948 kbps avg, ~0.284 bit/pixel
Аудио: 48 kHz, MPEG Audio 2, 2 ch, 192.00 kbps avg
Формат файла субтитров: prerendered (IDX+SUB)

MediaInfo

GeneralUnique ID : 192399603501705225555912761081937795909 (0x90BED0D61ECC2D48A42682B7EF201B45)Complete name : [apreder]TV5MONDE_Musique_Aqoustic_Alice_on_the_Roof_Higher(14.05.2016)DVB.mkvFormat : MatroskaFormat version : Version 2File size : 613 MiBDuration : 26mn 45sOverall bit rate mode : VariableOverall bit rate : 3 203 KbpsMovie name : AcousticReleased date : 2016-05-14Encoded date : UTC 2016-05-15 10:05:14Writing application : mkvmerge v9.1.0 ('Little Earthquakes') 64bitWriting library : libebml v1.3.3 + libmatroska v1.4.4Cover : YesAttachments : cover.jpg / cover_small.jpgDIRECTOR : Philippe SommetGENRE : MusicKEYWORDS : Torrentc.orgLAW_RATING : 12+SUMMARY : Alice on the Roof – Higher
VideoID : 1Format : MPEG VideoFormat version : Version 2Format profile : Main@MainFormat settings, BVOP : YesFormat settings, Matrix : CustomFormat settings, GOP : VariableFormat settings, picture structure : FrameCodec ID : V_MPEG2Codec ID/Info : MPEG 1 or 2 VideoDuration : 26mn 45sBit rate mode : VariableBit rate : 2 948 KbpsWidth : 720 pixelsHeight : 576 pixelsDisplay aspect ratio : 16:9Frame rate mode : ConstantFrame rate : 25.000 fpsStandard : PALColor space : YUVChroma subsampling : 4:2:0Bit depth : 8 bitsScan type : InterlacedScan order : Top Field FirstCompression mode : LossyBits/(Pixel*Frame) : 0.284Time code of first frame : 00:00:00:00Time code source : Group of pictures headerGOP, Open/Closed : OpenGOP, Open/Closed of first frame : ClosedStream size : 564 MiB (92%)Default : YesForced : No
AudioID : 2Format : MPEG AudioFormat version : Version 1Format profile : Layer 2Mode : Joint stereoMode extension : Intensity Stereo + MS StereoCodec ID : A_MPEG/L2Codec ID/Hint : MP2Duration : 26mn 45sBit rate mode : ConstantBit rate : 192 KbpsChannel(s) : 2 channelsSampling rate : 48.0 KHzCompression mode : LossyStream size : 36.7 MiB (6%)Language : FrenchDefault : YesForced : No
Text #1ID : 3Format : VobSubCodec ID : S_VOBSUBCodec ID/Info : Picture based subtitle format used on DVDsLanguage : RussianDefault : NoForced : No
Text #2ID : 4Format : UTF-8Codec ID : S_TEXT/UTF8Codec ID/Info : UTF-8 Plain TextLanguage : EnglishDefault : NoForced : No
Text #3ID : 5Format : UTF-8Codec ID : S_TEXT/UTF8Codec ID/Info : UTF-8 Plain TextLanguage : FrenchDefault : NoForced : No
Text #4ID : 6Format : VobSubCodec ID : S_VOBSUBCodec ID/Info : Picture based subtitle format used on DVDsLanguage : GermanDefault : NoForced : No
Text #5ID : 7Format : VobSubCodec ID : S_VOBSUBCodec ID/Info : Picture based subtitle format used on DVDsLanguage : DutchDefault : NoForced : No
Text #6ID : 8Format : VobSubCodec ID : S_VOBSUBCodec ID/Info : Picture based subtitle format used on DVDsLanguage : RomanianDefault : NoForced : No

Скриншоты

Резервные скриншоты

- [3'090]


[torrentc.info]_torrent-5225910.torrent
Торрент: Зарегистрирован ·  [ 2017-02-15 22:12 ] ·  791abaea59e032babbe0899d1284ec2e1b69723c

12 KB

Статус: проверено
Скачан: 0 раз
Размер: 613 MB
Оценка: 
(Голосов: 0)
Сказали спасибо: 0  Спасибо
Похожие темы
[Профиль]    [ЛС]
Показать сообщения:    
Ответить на тему

Текущее время: Сегодня 12:30

Часовой пояс: GMT + 7



Вы не можете начинать темы
Вы не можете отвечать на сообщения
Вы не можете редактировать свои сообщения
Вы не можете удалять свои сообщения
Вы не можете голосовать в опросах
Вы не можете прикреплять файлы к сообщениям
Вы можете скачивать файлы