Bobbysocks - Видеоклипы [1984, Pop, VHSRip,SatRip]

Ответить на тему
Статистика раздачи [Обновить пиров]
Размер:  641 MB   |    Зарегистрирован:  1 год 10 месяцев   |    Скачан:  0 раз

Полного источника не было: Никогда

 
   
 
 
 
Автор Сообщение

torrentc.info

Создавать темы 15-Фев-2017 22:28

[Цитировать]

Bobbysocks - Видеоклипы
Страна: Норвегия
Жанр: Pop
Продолжительность: 00:25:08
Год выхода: 1984 - 1987 г.
Описание: Сборник видеоклипов норвежского дуэта Bobbysocks! (победители Евровидения -1985) найденных в интернете. Не все клипы одинакового качества, от весьма хорошего до среднего.
Треклист:

1. Johnny and the Dancing Girls

Источник: скачано из сети
Качество: VHSRip
Формат файла: MPG
Видео кодек: MPEG2
Аудио кодек: AC3
Видео: MPEG2 Video 720x576 (4:3) 2 805 Kbps 30fps
Аудио: Dolby AC3 48000Hz stereo 2 channels 448kbps

Скриншоты

Mediainfo

General
Complete name : E:\FFOutput\Bobbysocks\Bobbysocks Johnny and the Dancing Girls (Razzel, 1986).mpg
Format : MPEG-PS
File size : 80.2 MiB
Duration : 3mn 22s
Overall bit rate mode : Variable
Overall bit rate : 3 319 Kbps
Video
ID : 224 (0xE0)
Format : MPEG Video
Format version : Version 2
Format profile : Main@Main
Format settings, BVOP : Yes
Format settings, Matrix : Default
Format settings, GOP : M=3, N=18
Duration : 3mn 22s
Bit rate mode : Variable
Bit rate : 2 805 Kbps
Maximum bit rate : 9 000 Kbps
Width : 720 pixels
Height : 576 pixels
Display aspect ratio : 4:3
Frame rate : 30.000 fps
Color space : YUV
Chroma subsampling : 4:2:0
Bit depth : 8 bits
Scan type : Progressive
Compression mode : Lossy
Bits/(Pixel*Frame) : 0.225
Time code of first frame : 00:00:00:00
Time code source : Group of pictures header
GOP, Open/Closed : Closed
Stream size : 67.8 MiB (85%)
Audio
ID : 189 (0xBD)-128 (0x80)
Format : AC-3
Format/Info : Audio Coding 3
Mode extension : CM (complete main)
Format settings, Endianness : Big
Muxing mode : DVD-Video
Duration : 3mn 22s
Bit rate mode : Constant
Bit rate : 448 Kbps
Channel(s) : 2 channels
Channel positions : Front: L R
Sampling rate : 48.0 KHz
Frame rate : 31.250 fps (1536 spf)
Compression mode : Lossy
Stream size : 10.8 MiB (13%)

2.Little By Little

Источник: скачано из сети
Качество: SatRip
Формат файла: VOB
Видео кодек: MPEG2
Аудио кодек: AC3
Видео: MPEG2 Video 720x576 (5:4) 3 525 Kbps 25 fps
Аудио: Dolby AC3 48000Hz stereo 2 channels 448kbps

Cкриншоты

Mediainfo

General
Complete name : E:\FFOutput\Bobbysocks\Bobbysocks - Litthe By Little.vob
Format : MPEG-PS
File size : 122 MiB
Duration : 4mn 12s
Overall bit rate mode : Variable
Overall bit rate : 4 054 Kbps
Video
ID : 224 (0xE0)
Format : MPEG Video
Format version : Version 2
Format profile : Main@Main
Format settings, BVOP : No
Format settings, Matrix : Default
Format settings, GOP : N=15
Duration : 4mn 12s
Bit rate mode : Variable
Bit rate : 3 525 Kbps
Maximum bit rate : 9 000 Kbps
Width : 720 pixels
Height : 576 pixels
Display aspect ratio : 5:4
Frame rate : 25.000 fps
Standard : PAL
Color space : YUV
Chroma subsampling : 4:2:0
Bit depth : 8 bits
Scan type : Progressive
Compression mode : Lossy
Bits/(Pixel*Frame) : 0.340
Time code of first frame : 00:00:00:00
Time code source : Group of pictures header
GOP, Open/Closed : Open
Stream size : 106 MiB (87%)
Audio
ID : 189 (0xBD)-128 (0x80)
Format : AC-3
Format/Info : Audio Coding 3
Mode extension : CM (complete main)
Format settings, Endianness : Big
Muxing mode : DVD-Video
Duration : 4mn 11s
Bit rate mode : Constant
Bit rate : 448 Kbps
Channel(s) : 2 channels
Channel positions : Front: L R
Sampling rate : 48.0 KHz
Frame rate : 31.250 fps (1536 spf)
Compression mode : Lossy
Stream size : 13.4 MiB (11%)

3. Don't Leave Me Here Without You

Источник: скачано из сети
Качество: VHSRip
Формат файла: MPG
Видео кодек: MPEG2
Аудио кодек: PCM
Видео: MPEG2 Video 720x576 (4:3) 3 439 Kbps 25 fps
Аудио: LPCM 48000Hz stereo 2 channels 1536kbps

Скриншоты


Mediainfo

General
Complete name : E:\FFOutput\Bobbysocks\Bobbysocks - Don-t Leave Me Here Without You .mpg
Format : MPEG-PS
File size : 112 MiB
Duration : 3mn 5s
Overall bit rate mode : Variable
Overall bit rate : 5 076 Kbps
Writing library : (c) 1998-2009 Womble Multimedia, Inc. / MPEG Video Wizard (03/2009) / Dec 9 2009
Video
ID : 224 (0xE0)
Format : MPEG Video
Format version : Version 2
Format profile : Main@Main
Format settings, BVOP : Yes
Format settings, Matrix : Default
Format settings, GOP : Variable
Duration : 3mn 5s
Bit rate mode : Variable
Bit rate : 3 439 Kbps
Maximum bit rate : 9 000 Kbps
Width : 720 pixels
Height : 576 pixels
Display aspect ratio : 4:3
Frame rate : 25.000 fps
Standard : PAL
Color space : YUV
Chroma subsampling : 4:2:0
Bit depth : 8 bits
Scan type : Progressive
Compression mode : Lossy
Bits/(Pixel*Frame) : 0.332
Time code of first frame : 00:00:00:00
Time code source : Group of pictures header
Stream size : 75.9 MiB (68%)
Writing library : (c) 1998-2009 Womble Multimedia, Inc. / MPEG Video Wizard (03/2009) / Dec 9 2009
Audio
ID : 189 (0xBD)-160 (0xA0)
Format : PCM
Format settings, Endianness : Big
Format settings, Sign : Signed
Muxing mode : DVD-Video
Duration : 3mn 5s
Bit rate mode : Constant
Bit rate : 1 536 Kbps
Channel(s) : 2 channels
Sampling rate : 48.0 KHz
Bit depth : 16 bits
Stream size : 33.9 MiB (30%)

4. I Don't Wanna Break My Neart For You

Источник: скачано из сети
Качество: SatRip
Формат файла: VOB
Видео кодек: MPEG2
Аудио кодек: AC3
Видео: MPEG2 Video 720x576 (5:4) 4 033 Kbps 25 fps
Аудио: Dolby AC3 48000Hz stereo 2 channels 448kbps

Скриншоты


Mediainfo

General
Complete name : E:\FFOutput\Bobbysocks\Bobbysocks - I DonT Wanna Break My Neart For You.vob
Format : MPEG-PS
File size : 110 MiB
Duration : 3mn 21s
Overall bit rate mode : Variable
Overall bit rate : 4 571 Kbps
Video
ID : 224 (0xE0)
Format : MPEG Video
Format version : Version 2
Format profile : Main@Main
Format settings, BVOP : No
Format settings, Matrix : Default
Format settings, GOP : N=15
Duration : 3mn 21s
Bit rate mode : Variable
Bit rate : 4 033 Kbps
Maximum bit rate : 9 000 Kbps
Width : 720 pixels
Height : 576 pixels
Display aspect ratio : 5:4
Frame rate : 25.000 fps
Standard : PAL
Color space : YUV
Chroma subsampling : 4:2:0
Bit depth : 8 bits
Scan type : Progressive
Compression mode : Lossy
Bits/(Pixel*Frame) : 0.389
Time code of first frame : 00:00:00:00
Time code source : Group of pictures header
GOP, Open/Closed : Open
Stream size : 96.8 MiB (88%)
Audio
ID : 189 (0xBD)-128 (0x80)
Format : AC-3
Format/Info : Audio Coding 3
Mode extension : CM (complete main)
Format settings, Endianness : Big
Muxing mode : DVD-Video
Duration : 3mn 21s
Bit rate mode : Constant
Bit rate : 448 Kbps
Channel(s) : 2 channels
Channel positions : Front: L R
Sampling rate : 48.0 KHz
Frame rate : 31.250 fps (1536 spf)
Compression mode : Lossy
Stream size : 10.7 MiB (10%)

5. Mr. Moon

Источник: скачано из сети
Качество: VHSRip
Формат файла: VOB
Видео кодек: MPEG2
Аудио кодек: AC3
Видео: MPEG2 Video 720x576 (5:4) 2 117 Kbps 25 fps
Аудио: Dolby AC3 48000Hz stereo 2 channels 448kbps

Скриншоты


Mediainfo

General
Complete name : E:\FFOutput\Bobbysocks\Bobbysocks - Mr. Moon (1986).vob
Format : MPEG-PS
File size : 61.6 MiB
Duration : 3mn 17s
Overall bit rate mode : Variable
Overall bit rate : 2 617 Kbps
Video
ID : 224 (0xE0)
Format : MPEG Video
Format version : Version 2
Format profile : Main@Main
Format settings, BVOP : No
Format settings, Matrix : Default
Format settings, GOP : N=15
Duration : 3mn 17s
Bit rate mode : Variable
Bit rate : 2 117 Kbps
Maximum bit rate : 9 000 Kbps
Width : 720 pixels
Height : 576 pixels
Display aspect ratio : 5:4
Frame rate : 25.000 fps
Standard : PAL
Color space : YUV
Chroma subsampling : 4:2:0
Bit depth : 8 bits
Scan type : Progressive
Compression mode : Lossy
Bits/(Pixel*Frame) : 0.204
Time code of first frame : 00:00:00:00
Time code source : Group of pictures header
GOP, Open/Closed : Open
Stream size : 49.8 MiB (81%)
Audio
ID : 189 (0xBD)-128 (0x80)
Format : AC-3
Format/Info : Audio Coding 3
Mode extension : CM (complete main)
Format settings, Endianness : Big
Muxing mode : DVD-Video
Duration : 3mn 16s
Bit rate mode : Constant
Bit rate : 448 Kbps
Channel(s) : 2 channels
Channel positions : Front: L R
Sampling rate : 48.0 KHz
Frame rate : 31.250 fps (1536 spf)
Compression mode : Lossy
Stream size : 10.5 MiB (17%)

6. Radio

Источник: скачано из сети
Качество: VHSRip
Формат файла: VOB
Видео кодек: MPEG2
Аудио кодек: AC3
Видео: MPEG2 Video 720x576 (5:4) 2 384 KbpsKbps 25 fps
Аудио: Dolby AC3 48000Hz stereo 2 channels 448kbps

Скриншоты

Mediainfo

General
Complete name : E:\FFOutput\Bobbysocks\Bobbysocks - Radio.vob
Format : MPEG-PS
File size : 76.2 MiB
Duration : 3mn 41s
Overall bit rate mode : Variable
Overall bit rate : 2 890 Kbps
Video
ID : 224 (0xE0)
Format : MPEG Video
Format version : Version 2
Format profile : Main@Main
Format settings, BVOP : No
Format settings, Matrix : Default
Format settings, GOP : N=15
Duration : 3mn 41s
Bit rate mode : Variable
Bit rate : 2 384 Kbps
Maximum bit rate : 9 000 Kbps
Width : 720 pixels
Height : 576 pixels
Display aspect ratio : 5:4
Frame rate : 25.000 fps
Standard : PAL
Color space : YUV
Chroma subsampling : 4:2:0
Bit depth : 8 bits
Scan type : Progressive
Compression mode : Lossy
Bits/(Pixel*Frame) : 0.230
Time code of first frame : 00:00:00:00
Time code source : Group of pictures header
GOP, Open/Closed : Open
Stream size : 62.9 MiB (83%)
Audio
ID : 189 (0xBD)-128 (0x80)
Format : AC-3
Format/Info : Audio Coding 3
Mode extension : CM (complete main)
Format settings, Endianness : Big
Muxing mode : DVD-Video
Duration : 3mn 40s
Bit rate mode : Constant
Bit rate : 448 Kbps
Channel(s) : 2 channels
Channel positions : Front: L R
Sampling rate : 48.0 KHz
Frame rate : 31.250 fps (1536 spf)
Compression mode : Lossy
Stream size : 11.8 MiB (15%)

7.Waiting For The Morning

Источник: скачано из сети
Качество: VHSRip
Формат файла: MPG
Видео кодек: MPEG2
Аудио кодек: MP3
Видео: MPEG2 Video 720x576 (5:4) 2 391 Kbps KbpsKbps 25 fps
Аудио: MPEG Audio 44100Hz stereo 2 channels 224kbps

Скриншоты

Mediainfo

General
Complete name : E:\FFOutput\Bobbysocks\Bobbysocks - Waiting For The Morning.mpg
Format : MPEG-PS
File size : 78.9 MiB
Duration : 4mn 8s
Overall bit rate mode : Variable
Overall bit rate : 2 668 Kbps
Writing library : (c) 1998-2009 Womble Multimedia, Inc. / MPEG Video Wizard (03/2009) / Dec 9 2009
Video
ID : 224 (0xE0)
Format : MPEG Video
Format version : Version 2
Format profile : Main@Main
Format settings, BVOP : Yes
Format settings, Matrix : Default
Format settings, GOP : N=15
Duration : 4mn 8s
Bit rate mode : Variable
Bit rate : 2 391 Kbps
Maximum bit rate : 9 000 Kbps
Width : 720 pixels
Height : 576 pixels
Display aspect ratio : 5:4
Frame rate : 25.000 fps
Standard : PAL
Color space : YUV
Chroma subsampling : 4:2:0
Bit depth : 8 bits
Scan type : Progressive
Compression mode : Lossy
Bits/(Pixel*Frame) : 0.231
Time code of first frame : 00:00:00:00
Time code source : Group of pictures header
GOP, Open/Closed : Open
Stream size : 70.7 MiB (90%)
Writing library : (c) 1998-2009 Womble Multimedia, Inc. / MPEG Video Wizard (03/2009) / Dec 9 2009
Audio
ID : 192 (0xC0)
Format : MPEG Audio
Format version : Version 1
Format profile : Layer 2
Duration : 4mn 8s
Bit rate mode : Constant
Bit rate : 224 Kbps
Channel(s) : 2 channels
Sampling rate : 44.1 KHz
Compression mode : Lossy
Stream size : 6.62 MiB (8%)


[torrentc.info]_torrent-5232393.torrent
Торрент: Зарегистрирован ·  [ 2017-02-15 22:12 ] ·  99784c1a1cb418c0267d8d37a8b9454822fee9eb

13 KB

Статус: проверено
Скачан: 0 раз
Размер: 641 MB
Оценка: 
(Голосов: 0)
Сказали спасибо: 0  Спасибо
Похожие темы
[Профиль]    [ЛС]
Показать сообщения:    
Ответить на тему

Текущее время: Сегодня 21:37

Часовой пояс: GMT + 7



Вы не можете начинать темы
Вы не можете отвечать на сообщения
Вы не можете редактировать свои сообщения
Вы не можете удалять свои сообщения
Вы не можете голосовать в опросах
Вы не можете прикреплять файлы к сообщениям
Вы можете скачивать файлы